<?xml version="1.0" standalone="no"?>
<!DOCTYPE svg PUBLIC "-//W3C//DTD SVG 1.1//EN" "http://www.w3.org/Graphics/SVG/1.1/DTD/svg11.dtd" >
<svg>
<metadata>
Created by FontForge 20090914 at Mon Jul 19 12:01:06 2021
 By www-data
Bellfort Regular &#194;&#169; nowak.tv 2015. All Rights Reserved
</metadata>
<defs>
<font id="Bellfort" horiz-adv-x="406" >
  <font-face 
    font-family="Bellfort"
    font-weight="400"
    font-stretch="normal"
    units-per-em="1024"
    panose-1="2 0 5 0 0 0 0 0 0 0"
    ascent="1000"
    descent="-24"
    x-height="781"
    cap-height="779"
    bbox="-18.001 -240.007 839.001 990"
    underline-thickness="150"
    underline-position="-142"
    unicode-range="U+0020-U+E047"
  />
<missing-glyph horiz-adv-x="1334" 
 />
    <glyph glyph-name=".notdef" horiz-adv-x="1334" 
 />
    <glyph glyph-name="space" unicode=" " horiz-adv-x="200" 
 />
    <glyph glyph-name="space" unicode="&#xa0;" horiz-adv-x="200" 
 />
    <glyph glyph-name="exclam" unicode="!" horiz-adv-x="220" 
d="M85 777h46c23.333 0 35 -7.66699 35 -23l-4 -123l2 -4c-1.33301 -9.33301 -2 -17 -2 -23v-27c-2.66699 -20 -4 -30.333 -4 -31c1.33301 0 2 -0.666992 2 -2c-4 0 -8 -4 -12 -12c0 -2.66699 4 -7 12 -13c-1.33301 -126 -3.33301 -189 -6 -189
c0 -1.33301 0.666992 -3.33301 2 -6c-2 -46 -4.66699 -69 -8 -69l4 -2l-2 -15v-4c0 -2.66699 0.666992 -5.33398 2 -8.00098c0 -14 -17.333 -21 -52 -21h-19c-8.66699 2.66699 -15 8.33398 -19 17.001l3 4v31c0 4.66699 2 9.66699 6 15v6h-4v10c-3.33301 0 -5 4.33301 -5 13
c0 18 -1.33301 78.333 -4 181l2 8c-2.66699 5.33301 -4 11 -4 17v14c0 5.33301 3 10.333 9 15v2c-5.33301 0 -9 4 -11 12c0 3.33301 0.666992 5 2 5l-2 24v11c-2.66699 93.333 -4 145.333 -4 156v6c0 16.667 11.667 25 35 25zM139 105c16.667 0 25 -8.33301 25 -25v-62
c0 -15.333 -15 -23 -45 -23h-38c-16.667 0 -25 7.66699 -25 23v69c0 12 11.333 18 34 18h49zM94 715l-2 -2l5 -1l-1 2h-1v1h-1zM145 75l-1 1v1l-1 1h-2v-3l2 -2l2 1v1z" />
    <glyph glyph-name="quotedbl" unicode="&#x22;" horiz-adv-x="320" 
d="M113 782c16.667 -4 25 -11.334 25 -22.001c0 -3.33301 -0.666992 -5 -2 -5c1.33301 -12 2 -18.667 2 -20c0 -18 -3 -79.667 -9 -185v-17c0 -15.333 -9 -23 -27 -23h-29c-16.667 0.666992 -25 9 -25 25l2 4v17c0 2.66699 0.666992 5.33398 2 8.00098
c-2.66699 6 -4 10.333 -4 13l-6 183c3.33301 13.333 10.333 20 21 20h27c5.33301 0 13 0.666992 23 2zM206 781.999h42c18 -1.33301 27 -9.33301 27 -24c-0.666992 -11.333 -2 -17 -4 -17l2 -11v-35c0 -118 -3.66699 -177 -11 -177c-6.66699 -4 -15.667 -6 -27 -6h-20
c-18 0 -27 11 -27 33c-2.66699 0 -5 75 -7 225c6.66699 8 15 12 25 12zM61 633.999h-2l1 -3l1 -2v1h1v3zM69 632.999v1l1 2h-3l-2 1l-1 -2l1 -2h4zM188 761.999l-1 -1v-3l2 -1h1l1 1l-1 2z" />
    <glyph glyph-name="numbersign" unicode="#" horiz-adv-x="541" 
d="M372 781l33.001 0.000976562c22 0 33 -7 33 -21c0 -1.33301 -6 -62.333 -18 -183h41c20.667 0 31 -7.66699 31 -23v-6c-2.66699 -47.333 -8 -71 -16 -71l-21 -2h-42c-5.33301 0 -12 -58 -20 -174h2c9.33301 -1.33301 16.666 -2 21.999 -2h23
c16.667 -2 25 -8.33301 25 -19c-2 -55.333 -10.333 -83 -25 -83h-54c-6.66699 0 -11.334 -38.333 -14.001 -115c-6 -55.333 -13 -83 -21 -83l-13 -2h-49c-15.333 0 -23 6.33301 -23 19l18 181l-4 2h-56c-1.33301 0 -7 1.33301 -17 4h-2
c-15.333 -134.667 -25.666 -202 -30.999 -202c-5.33301 -2.66699 -13 -4 -23 -4h-41c-14 0 -22.333 6.33301 -25 19c13.333 111.333 20 171 20 179l-4 2h-45c-10 4.66699 -15 10 -15 16c2.66699 57.333 10.334 86 23.001 86c23.333 0 40.666 0.666992 51.999 2v2
c0 10.667 3.33301 23.667 10 39l-6 4l10 127h-39c-16.667 0 -25 7 -25 21c2.66699 52.667 9.66699 79 21 79c7.33301 1.33301 13.333 2 18 2h36c4.66699 53.333 8.66699 82.666 12 87.999c0 1.33301 -0.666992 3.33301 -2 6c4 56 7.66699 85.667 11 89h-2
c3.33301 14 12.333 21 27 21h52c8 0 14 -4.66699 18 -14c-1.33301 -30 -4 -50.333 -8 -61c1.33301 0 2 -0.666992 2 -2h-2c0 -1.33301 0.666992 -2 2 -2c-6.66699 -56.667 -10 -97.667 -10 -123h79c14 124.667 22.333 190 25 196c5.33301 5.33301 14.333 8 27 8z
M218.001 380.001c1.33301 -2.66699 2 -5.66797 2 -9.00098c-2.66699 0 -4 -1.33301 -4 -4v-12c0 -12 -0.666992 -29.333 -2 -52l4 -2h4c4 0 6 0.666992 6 2l13 -2c32 -1.33301 48.667 -2 50 -2c5.33301 44 9.33301 72.333 12 85c0 1.33301 -0.666992 3.33301 -2 6
c5.33301 46.667 8 74.334 8 83.001l-4 2h-73c-4 0 -8.66699 -31.667 -14 -95zM361.001 309l-1 -4l4 4h-3zM294.001 20v2l-3 -1v-1h3z" />
    <glyph glyph-name="dollar" unicode="$" horiz-adv-x="419" 
d="M191 895h24.9971c15.333 0 23 -12.667 23 -38c0 -4 -0.666992 -9 -2 -15c1.33301 -7.33301 2 -14.333 2 -21v-6c0 -10.667 -2 -16.334 -6 -17.001c2.66699 -8 4 -15 4 -21c-2 -1.33301 -5.33301 -2 -10 -2v-2c0 -2.66699 14.667 -7 44 -13
c33.333 -16.667 58 -40.667 74 -72c12.667 -26.667 19 -47.334 19 -62.001v-2c0 -20 -16 -30 -48 -30c0 -2 -13 -4.66699 -39 -8c-11.333 0 -17 5 -17 15c0 3.33301 1 6 3 8c-3.33301 8.66699 -5.66602 13 -6.99902 13c1.33301 2.66699 2 4.66699 2 6
c-9.33301 27.333 -29 41 -59 41h-2c-9.33301 0 -23.666 -8.66699 -42.999 -26h-6v-6c2.66699 -6 4.66699 -9 6 -9l-2 -10v-30c0 -8 6.33301 -25.667 19 -53v-15c10 -0.666992 15 -3.33398 15 -8.00098v-4c0 -3.33301 -1.33301 -5 -4 -5h-2l-4 2
c0 -1.33301 -0.666992 -2 -2 -2c1.33301 -8 3.33301 -12 6 -12h2v6h9c68.667 -88 103 -136 103 -144c0 -3.33301 9.33301 -14.666 28 -33.999c26.667 -31.333 45.667 -82.333 57 -153v-8c0 -12.667 -2.66699 -32 -8 -58h-2c-3.33301 0 -5 -3.33301 -5 -10
c-14 -29.333 -31 -48.333 -51 -57c0 -6 -16 -14 -48 -24c1.33301 -35.333 2 -61.333 2 -78v-28c0 -12 -5.66699 -19.667 -17 -23h-30c-19.333 0 -29 8.33301 -29 25c0 7.33301 -1 16 -3 26c3.33301 4.66699 5 8 5 10l-2 9c1.33301 2.66699 2 4.66699 2 6
c-3.33301 4.66699 -5 9 -5 13v32c-1.33301 2 -17.333 7 -48 15c-35.333 20.667 -57.333 41.667 -66 63c-14 27.333 -21 51.333 -21 72c0 14.667 26.667 24.667 80 30c0 1.33301 3.66699 2 11 2c12.667 0 19 -14.667 19 -44c10.667 -22.667 24.667 -34 42 -34h19
c31.333 6.66699 47 21.334 47 44.001c0 2.66699 -1.33301 4 -4 4l2 15v9c0 17.333 -19 58.333 -57 123c-46.667 55.333 -70 87 -70 95c0 8.66699 -1.33301 13 -4 13l-11 -2c-12.667 18.667 -19 29.334 -19 32.001v6c-9.33301 0 -27.666 30.333 -54.999 91
c-8.66699 34 -13 54.667 -13 62c2 0 4 2 6 6v2l-4 6v9c0 48 23.333 89.667 70 125c12.667 8.66699 29 15.667 49 21c0 10.667 1.33301 20.667 4 30c-1.33301 0 -3.33301 2.66699 -6 8c2.66699 5.33301 4 11 4 17c-2.66699 4.66699 -4 9 -4 13c0 39.333 5 59 15 59
c5.33301 1.33301 11 2 17 2zM225.997 57l2 -2v6l-2 -2v-2zM233.997 42l1 -1h4v2l-1 2l-4 -1v-2z" />
    <glyph glyph-name="percent" unicode="%" horiz-adv-x="677" 
d="M492 778c12 -4.66699 18 -11.668 18 -21.001c-6.66699 -30 -12.667 -45 -18 -45v-11c0 -3.33301 -18 -57.333 -54 -162c-11.333 -38 -22.666 -69.333 -33.999 -94c-69.333 -206.667 -121.333 -355.667 -156 -447c-6.66699 -4 -15.667 -6 -27 -6h-16
c-22.667 0.666992 -34 8.33398 -34 23.001c52.667 164 131.667 395 237 693c7.33301 45.333 18.666 68 33.999 68c32 1.33301 48.667 2 50 2zM169 773.999l4 -0.000976562c58 0 91.333 -36.667 100 -110c0 -32 0.666992 -56.333 2 -73l-2 -10c2.66699 -26 4.66699 -51 6 -75
c0 -72 -14.333 -116.333 -43 -133c-8.66699 -6 -19.667 -9.66699 -33 -11c0 -4.66699 -13.333 -7.33398 -40 -8.00098c-44.667 0 -76 23 -94 69c-5.33301 23.333 -8 46 -8 68v48c0 26.667 -0.666992 50.334 -2 71.001c0 78.667 11.667 126.334 35 143.001c22 14 47 21 75 21
zM132 627.998c2.66699 -5.33301 4 -9.33398 4 -12.001c1.33301 -56 2 -101 2 -135v-2c0 -37.333 11.667 -56 35 -56c18 4.66699 27 16.334 27 35.001c-2.66699 88 -4 161.333 -4 220c-4 18 -12.333 27 -25 27h-12c-18 0 -27 -25.667 -27 -77zM519 415.997
c48 0 79.666 -25.002 94.999 -75.002c4.66699 -23.333 7 -37 7 -41c1.33301 -89.333 2 -140.666 2 -153.999c0 -68 -10.667 -109.667 -32 -125c-25.333 -15.333 -50.666 -23 -75.999 -23c-48.667 0 -80.667 23 -96 69c-7.33301 41.333 -11 65 -11 71l3 14v8
c0 36.667 -1 78.334 -3 125.001c0 87.333 37 131 111 131zM484.999 307.995l-0.000976562 -81c0 -12 -1.33301 -26.667 -4 -44c2.66699 -4.66699 4 -10.667 4 -18c0 -65.333 10 -98 30 -98c16 0 25.667 2.66699 29 8v6c0 1.33301 1.33301 7 4 17v15
c0 149.333 -3.66699 224 -11 224c-5.33301 7.33301 -12.666 11 -21.999 11c-20 0 -30 -13.333 -30 -40zM217.998 77.9951l-1 -4l4 4h-3zM128.998 388.995l3 -1l4 6v2h-2l-5 -5v-2z" />
    <glyph glyph-name="ampersand" unicode="&#x26;" horiz-adv-x="576" 
d="M216 784c64 0 110.001 -27.334 138.001 -82.001c11.333 -26.667 17 -55.667 17 -87c0 -28.667 -3.66699 -50.667 -11 -66c0 -10 -2.66699 -15 -8 -15v-4c0 -13.333 -9.33301 -32.333 -28 -57l-6 -11c-4 -10.667 -19 -35.334 -45 -74.001c20 -26.667 30 -43 30 -49l19 -21
c27.333 -34.667 48.666 -59.334 63.999 -74.001c15.333 20.667 30.666 55.334 45.999 104.001c5.33301 5.33301 11 8 17 8h2c50 -24 75 -39 75 -45v-2c0 -18.667 -11.333 -47.667 -34 -87v-4l-32 -57v-6c18 -23.333 34.333 -42.666 49 -57.999c42 -45.333 63 -72 63 -80
c-6 -12.667 -14.333 -19 -25 -19c-3.33301 0 -6.33301 0.666992 -9 2c-9.33301 -1.33301 -17 -2 -23 -2h-45c-12.667 0 -33 18.333 -61 55c-9.33301 10 -15 15 -17 15c-57.333 -50.667 -107.333 -77.667 -150 -81c-2.66699 1.33301 -5.66699 2 -9 2l-49 -4l-8 6h-7l-6 -4h-4
c-24.667 3.33301 -48 14 -70 32c-34 38.667 -51 79 -51 121v10c2.66699 60 12 95.333 28 106h2v11c0 1.33301 -0.666992 2 -2 2c8.66699 25.333 25.334 52.333 50.001 81c6 2 9 4 9 6c-1.33301 2.66699 -2 4.66699 -2 6c16.667 16.667 25 27.334 25 32.001
c-34 56.667 -55.667 97.667 -65 123c-2 0 -3 0.666992 -3 2l-2 17c-8.66699 0 -15.667 23.333 -21 70v15c0 82 38.333 134.333 115 157c13.333 2.66699 28 4.66699 44 6zM167.001 624.999l-0.000976562 -25c0 -12 11.333 -45.333 34 -100c0 -3.33301 4.33301 -9 13 -17
c10.667 5.33301 26.334 39.333 47.001 102l4 34c0 24.667 -5.33301 41 -16 49s-22.667 12 -36 12c-26 0 -41.333 -18.333 -46 -55zM176 268.999l2.00098 -3.99805c-21.333 -42 -32 -74.667 -32 -98v-12c5.33301 -46.667 25 -70 59 -70c34.667 0 66.667 12 96 36
c10 11.333 18.333 21.666 25 30.999c0 5.33301 -31.667 45.666 -95 120.999c0 10 -1.33301 15 -4 15l-5 -2c-2.66699 6.66699 -7.33398 11.667 -14.001 15c-2 0 -12.667 -10.667 -32 -32zM267.001 716.001l-3 2l-1 -2l1 -2l2 -1zM356.001 186.001v-4l2 1l2 4l-1 2z" />
    <glyph glyph-name="quotesingle" unicode="'" horiz-adv-x="180" 
d="M69 778c10 -0.666992 14.999 -2.33301 14.999 -5c5.33301 3.33301 11 5 17 5h15c14 0 21.667 -9.33301 23 -28c0 -4 -2 -10.333 -6 -19c2.66699 -4.66699 4 -9 4 -13v-4c0 -10 -1.33301 -15 -4 -15l2 -15c0 -20.667 -0.666992 -75 -2 -163c0 -12 -10.667 -18.333 -32 -19
h-23c-17.333 0 -26 10.667 -26 32v23l-2 13c1.33301 2.66699 2 4.66699 2 6c-4 0 -6.66699 48.667 -8 146l2 9c-1.33301 2 -2 5.66699 -2 11v2c0 1.33301 0.666992 2 2 2l-2 4v11c2.66699 0 5.33398 3.33301 8.00098 10c7.33301 4.66699 13 7 17 7zM76.999 549.001h2l2 2
l-1 1h-1l-1 1l-1 -1v-3z" />
    <glyph glyph-name="parenleft" unicode="(" horiz-adv-x="248" 
d="M161 906l4 -0.00195312c37.333 -31.333 56 -51.666 56 -60.999c0 -6.66699 -19.333 -33 -58 -79c-6.66699 -14.667 -10 -27.667 -10 -39v-77c0 -11.333 0.666992 -26 2 -44c-1.33301 -2.66699 -2 -4.66699 -2 -6c1.33301 -8 2 -13.667 2 -17l-2 -12c4 -42 6 -110 6 -204
v-15c0 -13.333 -0.666992 -34 -2 -62h2l-2 -4l2 -21c0 -5.33301 -0.666992 -11.666 -2 -18.999c2.66699 -149.333 8 -224 16 -224c34 -40.667 55 -68 63 -82c0 -9.33301 -18 -30 -54 -62c-1.33301 0 -3.33301 -0.666992 -6 -2c-8 1.33301 -36 31 -84 89
c-16.667 36.667 -25 68.667 -25 96c3.33301 0 5 1.33301 5 4v4c-6 8 -9 14.333 -9 19v94c0 12 -0.666992 25.667 -2 41c1.33301 4.66699 2 14.334 2 29.001l-2 9c0 1.33301 0.666992 2 2 2l-2 19c-2.66699 175.333 -4 287.666 -4 336.999c0 6.66699 0.666992 17 2 31
c-1.33301 6 -2 17 -2 33v13c0 26 2 39 6 39c-2.66699 5.33301 -4 10.333 -4 15c0 34 24.333 77.667 73 131c11.333 16.667 21 25 29 25zM158 -60.002l-1 3h-6l-1 -4l3 -1l5 -4l3 2l3 2l3 -2v5h-2l-5 1zM125 180.998l1 3h-8v-2l5 -3z" />
    <glyph glyph-name="parenright" unicode=")" horiz-adv-x="248" 
d="M78 909c72.667 -59.333 109 -123.334 109 -192.001v-18c1.33301 -184.667 2 -286.667 2 -306h2l-2 -4c0 -8 0.666992 -13 2 -15c0 -4 -0.666992 -6 -2 -6c1.33301 -28 2 -49 2 -63v-58c0 -11.333 0.666992 -24.333 2 -39l-2 -5c2.66699 -24.667 4 -66.667 4 -126v-9
c0 -55.333 -22.333 -106.666 -67 -153.999c-16 -23.333 -29 -35 -39 -35c-7.33301 0 -26.666 18.667 -57.999 56v6c0 4.66699 20 34 60 88c3.33301 9.33301 6 20.333 8 33c-1.33301 20.667 -2 34.667 -2 42c0 39.333 -2.66699 171.666 -8 396.999v48
c0 4.66699 -0.666992 10.667 -2 18c1.33301 14.667 2.66602 25.334 3.99902 32.001c-1.33301 14.667 -2 27.667 -2 39v71c0 40.667 -15.333 73.334 -46 98.001c-15.333 18.667 -24.333 31.667 -27 39c4 11.333 22.667 31.666 56 60.999c2.66699 1.33301 4.66699 2 6 2z
M144 747.999v-5l2 1l5 4l-2 2z" />
    <glyph glyph-name="asterisk" unicode="*" horiz-adv-x="512" 
d="M237 784l25.999 0.00195312c16.667 -1.33301 25 -8.33301 25 -21c-7.33301 -78.667 -11 -123.334 -11 -134.001l28 13c4 6.66699 28.667 18.667 74 36c6 5.33301 14 8 24 8h4c6.66699 0 16.334 -20.333 29.001 -61c0 -18 -21 -28.667 -63 -32c-6 -4 -30 -10.333 -72 -19
v-6l21 -24l-4 -8c10 -2 20.667 -8.33301 32 -19c25.333 -28 38 -43.667 38 -47c1.33301 -5.33301 2 -10.333 2 -15c-30 -25.333 -48.333 -38 -55 -38c-11.333 0 -33.333 30.333 -66 91c-2 0 -8.33301 8 -19 24c-1.33301 0 -19 -28.333 -53 -85c-10 -21.333 -20 -32 -30 -32
h-6c-23.333 14 -39.666 26.667 -48.999 38v4l4 7l-4 6c11.333 7.33301 17 11.666 17 12.999c-1.33301 2.66699 -2 4.66699 -2 6c1.33301 0 19.666 20.667 54.999 62h6c0 6.66699 5 13 15 19v4h-8c-3.33301 0 -6.66602 0.666992 -9.99902 2s-10 2.66602 -20 3.99902
c-69.333 10.667 -104 20 -104 28c-2.66699 4.66699 -4 8.33398 -4 11.001c8 30.667 15 46.667 21 48h-2v7c0 1.33301 3.66699 4 11 8c5.33301 0 45.666 -15.667 120.999 -47h4l-7 96h-2c4.66699 8 7 15 7 21c-2.66699 0 -5.66699 5 -9 15c3.33301 11.333 15.333 17 36 17z
M269.999 533.002v3h-2v-1l-1 -1v-1h3zM276.999 522.002h-2l-3 -2l2 -2h3v4z" />
    <glyph glyph-name="plus" unicode="+" horiz-adv-x="400" 
d="M225 580c13.333 -2 20 -8.33398 20 -19.001c-1.33301 -9.33301 -2 -17 -2 -23v-6c0 -1.33301 0.666992 -2 2 -2c0 -1.33301 -0.666992 -2 -2 -2c1.33301 -14 2 -24.333 2 -31v-36c0.666992 -2.66699 2 -4 4 -4c2.66699 0 11 0.666992 25 2c1.33301 0 7 -0.666992 17 -2
c23.333 4.66699 37.333 7 42 7h8c15.333 0 23 -11.333 23 -34c0 -42.667 -5 -64 -15 -64c-3.33301 0 -8.66602 -0.666992 -15.999 -2l-25 2c-43.333 -1.33301 -65 -3.33301 -65 -6c0 -20 0.666992 -52 2 -96c0 -15.333 -15 -23 -45 -23h-25c-20 0 -30 7.66699 -30 23
c0 6 1 37 3 93l-25 -2h-71c-15.333 0 -23 8.33301 -23 25v52c0 15.333 7.66699 23 23 23h50c9.33301 0 24.666 0.666992 45.999 2c-2 46.667 -3 79.334 -3 98.001c0 15.333 7.66699 23 23 23h27c8 0 18 0.666992 30 2zM194 302.999l-3 -1v2l-2 -2l2 -1l-1 -2v-1l7 2l-2 2z
M185 291.999l-2 4h-1l-2 -3l2 -1h3z" />
    <glyph glyph-name="comma" unicode="," horiz-adv-x="221" 
d="M83 105c12 -1.33301 24.668 -2.00098 38.001 -2.00098h13c12.667 0 19 -10 19 -30c1.33301 -7.33301 2 -14.333 2 -21l-2 -11c1.33301 -9.33301 2 -18.333 2 -27c0 -22.667 -12.667 -53 -38 -91c-10.667 -24 -20.334 -37.667 -29.001 -41h-7
c-6.66699 -1.33301 -10 -2.66602 -10 -3.99902l-5 2h-10c-1.33301 0 -2 -0.666992 -2 -2c-7.33301 2 -11 4 -11 6c0 11.333 15 46 45 104v4c-26 3.33301 -39 7 -39 11v2l2 9c-2.66699 0 -4.66699 4 -6 12c0 3.33301 0.666992 6.33301 2 9c-1.33301 14.667 -2 26 -2 34v4
c0 20 8.66699 30 26 30z" />
    <glyph glyph-name="hyphen" unicode="-" horiz-adv-x="310" 
d="M192 466c22 -1.33301 42.998 -2.00293 62.998 -2.00293c12.667 0 19 -7.66699 19 -23v-13c0 -9.33301 -0.666992 -18.666 -2 -27.999c1.33301 -5.33301 2 -11.666 2 -18.999c0 -10.667 -9.66699 -17 -29 -19c-23.333 0 -49.666 0.666992 -78.999 2
c-1.33301 -1.33301 -13.666 -2.66602 -36.999 -3.99902c-5.33301 2.66699 -10.333 4 -15 4l-4 -2l-4 2c-12.667 -1.33301 -20.667 -2 -24 -2c-38 2 -57 9.66699 -57 23l4 3l7 -5h2v2c-10 10 -15 18 -15 24v29c0 2 -0.666992 3 -2 3c0 4 2.66699 6 8 6v13l15 2z
M263.998 438.997v3h-3v-3h3zM260.998 448.997l-1 -1l-1 -3l2 -1l2 2l3 3h-5zM219.998 456.997h3l-3 3v-3z" />
    <glyph glyph-name="hyphen" unicode="&#xad;" horiz-adv-x="310" 
d="M192 466c22 -1.33301 42.998 -2.00293 62.998 -2.00293c12.667 0 19 -7.66699 19 -23v-13c0 -9.33301 -0.666992 -18.666 -2 -27.999c1.33301 -5.33301 2 -11.666 2 -18.999c0 -10.667 -9.66699 -17 -29 -19c-23.333 0 -49.666 0.666992 -78.999 2
c-1.33301 -1.33301 -13.666 -2.66602 -36.999 -3.99902c-5.33301 2.66699 -10.333 4 -15 4l-4 -2l-4 2c-12.667 -1.33301 -20.667 -2 -24 -2c-38 2 -57 9.66699 -57 23l4 3l7 -5h2v2c-10 10 -15 18 -15 24v29c0 2 -0.666992 3 -2 3c0 4 2.66699 6 8 6v13l15 2z
M263.998 438.997v3h-3v-3h3zM260.998 448.997l-1 -1l-1 -3l2 -1l2 2l3 3h-5zM219.998 456.997h3l-3 3v-3z" />
    <glyph glyph-name="period" unicode="." horiz-adv-x="210" 
d="M144 106c9.33301 0 14.668 -7.66699 16.001 -23v-54c0 -20.667 -8.33301 -31 -25 -31h-2l-21 6c-1.33301 -4 -5.33301 -6 -12 -6h-15c-23.333 0 -35 6.33301 -35 19l2 21v43c0 15.333 11 23 33 23h19c11.333 0 24.666 0.666992 39.999 2z" />
    <glyph glyph-name="slash" unicode="/" horiz-adv-x="377" 
d="M304 773l21.001 0.000976562l12 -2c2.66699 1.33301 5.66699 2 9 2c18 -1.33301 27 -5 27 -11c-12.667 -33.333 -37.667 -107.333 -75 -222c-30 -86.667 -49.333 -134 -58 -142c1.33301 -4 2.66602 -6 3.99902 -6c-91.333 -250.667 -139.333 -380.334 -144 -389.001
c-5.33301 -4 -11.333 -6 -18 -6c-44.667 0 -67 3.33301 -67 10c14 50 25 82 33 96c54 157.333 91 255 111 293l124 366c3.33301 7.33301 10.333 11 21 11zM325.001 742.001l-1 -2h5l-1 2h-2v2zM293.001 712.001h4l1 3l-3 1l-3 -1z" />
    <glyph glyph-name="zero" unicode="0" horiz-adv-x="386" 
d="M188 789c70.667 0 120.666 -36.6699 149.999 -110.003c6.66699 -22 10 -54 10 -96v-135c0 -11.333 -0.666992 -24.666 -2 -39.999c2.66699 -7.33301 4 -21.666 4 -42.999v-140c0 -25.333 0.666992 -57 2 -95c-8 -46.667 -21.667 -80 -41 -100
c-32 -32 -70.333 -48 -115 -48c-48.667 0 -91 23 -127 69c-18 36 -27 68.333 -27 97c-1.33301 128.667 -2 213.334 -2 254.001c0 7.33301 0.666992 21.333 2 42c-2 18.667 -4 74.667 -6 168c0 72 27 124.667 81 158c26.667 12.667 50.334 19 71.001 19zM141.999 628.997
l0.000976562 -7.99902c0 -54.667 0.666992 -127 2 -217l2 -4c0 -1.33301 -0.666992 -2 -2 -2l2 -25v-2c0 -13.333 1.33301 -85.333 4 -216v-23c0 -31.333 14.667 -50 44 -56c29.333 0.666992 44.666 11.667 45.999 33c4 0 6.66699 16.667 8 50v27c0 1.33301 0.666992 2 2 2
c-4 5.33301 -6 33.666 -6 84.999v129c0 11.333 -0.666992 26 -2 44c0 15.333 4 23 12 23v4c-8 0 -12 4.66699 -12 14c0 120.667 -5 181 -15 181c-6.66699 12.667 -17 19 -31 19h-12c-28 0 -42 -19.333 -42 -58zM299 122.998l2 2l2 -2h4v5h-9zM308 106.998h3l1 2l-1 1h-1
l-1 1v-1l-1 -1v-2z" />
    <glyph glyph-name="one" unicode="1" horiz-adv-x="267" 
d="M187 785c16.667 0 25.001 -9.66699 25.001 -29l5 -35c0 -1.33301 -1 -3.33301 -3 -6l11 -410c0 -1.33301 -0.666992 -2 -2 -2c0 -3.33301 0.666992 -9 2 -17c1.33301 -118 2 -205.333 2 -262c0 -18 -10.333 -27 -31 -27h-54c-16.667 0 -25 14 -25 42v20
c0 1.33301 0.666992 7 2 17c0 1.33301 -0.666992 2 -2 2l2 11v230l4 15c-6 0 -10.333 88.667 -13 266h-22c-11.333 0 -24.666 0.666992 -39.999 2c-2.66699 -1.33301 -5.33398 -2 -8.00098 -2c-8.66699 2 -14.334 6.33301 -17.001 13l2 4c-2.66699 8.66699 -4 15 -4 19v29
c0 13.333 9 23 27 29c18.667 0 43 22 73 66c0 13.333 8.33301 21 25 23zM200.001 77v3l-1 1h-2v-3l1 -1h2zM181.001 73v1l-3 1v-2h3z" />
    <glyph glyph-name="two" unicode="2" horiz-adv-x="370" 
d="M188 792c70 0 118.665 -37.6689 145.998 -113.002c2.66699 -12.667 4 -23 4 -31l2 -35c0 -35.333 -4.66699 -65.333 -14 -90v-6c0 -1.33301 0.666992 -2 2 -2c-6.66699 -47.333 -26 -99.166 -58 -155.499s-54.333 -100.166 -67 -131.499
c-20.667 -36 -36.667 -78.333 -48 -127l4 -2h123c4.66699 0 11 0.666992 19 2c2.66699 -1.33301 4.66699 -2 6 -2l19 2c14.667 0 22 -7.66699 22 -23v-56c-1.33301 -15.333 -6.66602 -23 -15.999 -23c-107.333 -1.33301 -188 -2 -242 -2h-45c-12.667 0 -19 7.66699 -19 23v8
c0 56 30.667 141.333 92 256l66 139c34.667 79.333 52 145.333 52 198c0 50 -15.333 75 -46 75c-36 0 -54 -18.667 -54 -56v-42c-1.33301 -12.667 -7.33301 -19 -18 -19h-67c-14 0 -21 17.333 -21 52c0 52 18 95 54 129c28.667 21.333 63.334 32 104.001 32zM60.998 86.998
v-2l3 -1v3h-3z" />
    <glyph glyph-name="three" unicode="3" horiz-adv-x="375" 
d="M177 787c71.333 0 120.002 -38.3311 146.002 -114.998c5.33301 -28.667 8 -49 8 -61v-34c0 -1.33301 0.666992 -2 2 -2c-8.66699 -79.333 -21.334 -125.333 -38.001 -138c-6.66699 -10 -15 -17.333 -25 -22v-4c26 -4 48 -29.333 66 -76c5.33301 -22 8 -34.667 8 -38
l-2 -11l6 -29c-1.33301 -14.667 -2 -25.334 -2 -32.001v-58c0 -71.333 -24 -125 -72 -161c-20 -16.667 -49.667 -25 -89 -25c-45.333 0 -83.333 19 -114 57c-24.667 33.333 -37 64.666 -37 93.999v55c0 15.333 6.66699 23 20 23h65c14 0 21 -7 21 -21v-4
c0 -56.667 8 -88 24 -94c5.33301 -4 11.666 -6 18.999 -6h15c28 6 42 23 42 51v12c0 7.33301 -0.666992 14.666 -2 21.999l4 38c0 88 -13.333 136 -40 144c-20 2.66699 -30 6.33398 -30 11.001c0 4 -1.33301 6 -4 6c-2.66699 -0.666992 -4 -2 -4 -4
c1.33301 -2.66699 2 -5 2 -7c-2.66699 -1.33301 -4.66699 -2 -6 -2l-11 2l-19 -4c-12.667 0 -19 18.333 -19 55c2.66699 0 4 1.33301 4 4l-4 7v15c0 15.333 9.66699 23 29 23h32c35.333 0 53 38 53 114v53c-3.33301 41.333 -19.333 62 -48 62c-23.333 0 -37 -16.333 -41 -49
v-51c0 -4.66699 -2.66699 -11 -8 -19c-33.333 1.33301 -58 2 -74 2h-7c-14 0 -21 6.33301 -21 19c0 54 13 100.5 39 139.5s63.333 58.5 112 58.5zM218.002 41.002v2h-3v-2h3z" />
    <glyph glyph-name="four" unicode="4" horiz-adv-x="394" 
d="M222 778c8.66699 0 25.666 -0.665039 50.999 -1.99805l13 2c10 -2.66699 15 -5.33398 15 -8.00098l-4 -7c6.66699 -3.33301 10 -12.333 10 -27c1.33301 -12 2 -32.667 2 -62v-36l-2 -13c1.33301 -2.66699 2 -4.66699 2 -6l-4 -8h4
c-5.33301 -24 -8.66602 -36 -9.99902 -36c4 0 7.33301 -72.333 10 -217v-23c0 -1.33301 0.666992 -2 2 -2c0 -1.33301 -0.666992 -2 -2 -2l2 -26v-46h39c15.333 0 23 -12 23 -36c0 -18 0.666992 -34.333 2 -49c-2.66699 0 -6.33398 -4.33301 -11.001 -13
c0 -1.33301 -16 -2.66602 -48 -3.99902v-23c0 -26.667 1.33301 -60 4 -100c0 -22.667 -8.66699 -34 -26 -34h-59c-15.333 0 -23 10.667 -23 32c-1.33301 84.667 -4.33301 127 -9 127c-2.66699 0 -4 0.666992 -4 2c-26 -1.33301 -45 -2 -57 -2h-64
c-11.333 0 -24.666 -0.666992 -39.999 -2c-11.333 2.66699 -17 9 -17 19l2 19c0 1.33301 -0.666992 3.33301 -2 6c0 48 12 99 36 153c4 20 9 30 15 30c0 25.333 7.66699 55.666 23 90.999c2.66699 3.33301 17.667 43.666 45 120.999c35.333 113.333 57 173.333 65 180l5 -2
c4.66699 2.66699 8.66699 4 12 4zM145.999 363.002l2.00098 0.000976562c-11.333 -26 -22.666 -60.667 -33.999 -104h24c9.33301 0 17.666 -0.666992 24.999 -2c7.33301 1.33301 15.666 2 24.999 2h17l-2 190v60c0 2.66699 -1.33301 4 -4 4h-2
c-4 0 -16.667 -37.333 -38 -112c-0.666992 -0.666992 -5 -13.334 -13 -38.001zM274 35.0029l-1 -2l5 -2v2h-1l-1 3z" />
    <glyph glyph-name="five" unicode="5" horiz-adv-x="380" 
d="M296 779c12.667 -2 19 -8.33105 19 -18.998v-63c0 -12 -7 -18 -21 -18h-144l-10 -2v-71c0 -21.333 0.666992 -56 2 -104h2c32.667 8 53.667 12 63 12c61.333 0 105.666 -38 132.999 -114c5.33301 -16 8 -52 8 -108v-98c0 -14 0.666992 -30.667 2 -50
c0 -46.667 -18 -88.334 -54 -125.001c-28.667 -23.333 -59 -35 -91 -35c-37.333 1.33301 -70.666 9.66602 -99.999 24.999c-46 28 -69 87 -69 177c2 12 8.33301 18 19 18h68c12.667 0 19 -10.333 19 -31v-14c0 -1.33301 0.666992 -2 2 -2l-2 -5c0 -37.333 10.333 -60 31 -68
c10 -1.33301 18.333 -2 25 -2c30.667 0 46 31.667 46 95v15c-1.33301 54 -2 104.667 -2 152c0 45.333 -14.667 68 -44 68h-12c-22 0 -37.333 -18.667 -46 -56c-6 -5.33301 -13 -8 -21 -8h-60c-15.333 0 -23 10.333 -23 31c-1.33301 18 -2 41 -2 69v312
c0 12.667 15.333 19 46 19h216zM99 87.002l2 2l-2 1l-1 1l-4 -4h5z" />
    <glyph glyph-name="six" unicode="6" horiz-adv-x="390" 
d="M177 787l18.998 -0.000976562c84 0 132.667 -52 146 -156c1.33301 -19.333 2 -32.666 2 -39.999c-3.33301 -11.333 -15.333 -17 -36 -17h-54c-12 0 -18 12.667 -18 38c0 40 -8.33301 63.667 -25 71c-13.333 2.66699 -23.666 4 -30.999 4c-22 0 -34.667 -17.333 -38 -52
c-1.33301 -15.333 -2.66602 -23 -3.99902 -23c0 -1.33301 0.666992 -2 2 -2c2.66699 -76.667 4.66699 -115 6 -115c20.667 16.667 43.667 25 69 25c52 0 92.333 -27 121 -81c10.667 -28 16 -74.333 16 -139v-31c0 -9.33301 -0.666992 -18.333 -2 -27l4 -52l-2 -11
c0 -0.666992 0.666992 -4.66699 2 -12l-2 -15l2 -8c0 -36 -15.333 -72.667 -46 -110c-34.667 -29.333 -70 -44 -106 -44c-35.333 0 -64.333 6.33301 -87 19c-46 32 -69 81.667 -69 149c0 4.66699 0.666992 8.33398 2 11.001c-1.33301 10 -2 18.333 -2 25
c0 52.667 -1.33301 92.667 -4 120c1.33301 2.66699 2 6.33398 2 11.001l-2 4c1.33301 2.66699 2 4.66699 2 6c-2.66699 20.667 -4 36 -4 46v21l8 8c0 1.33301 -2.66699 5.66602 -8 12.999v18l-4 15c0 10 2 21.667 6 35c-3.33301 0 -5.33301 3.66699 -6 11
c0 17.333 0.666992 33.333 2 48c-1.33301 33.333 -2 58.666 -2 75.999c0 80 34 131.333 102 154c17.333 4.66699 30.333 7 39 7zM143.998 341.999c1.33301 -14.667 2 -26.001 2 -34.001v-18c0 -20.667 0.666992 -48.667 2 -84l-2 -8c0 -62 8.33301 -96.667 25 -104
c12.667 -4 21 -6 25 -6c32 0 48 20 48 60v56c0 6.66699 0.666992 13.667 2 21c-4 116.667 -8.66699 175 -14 175c-10 12 -21.333 18 -34 18h-10c-28 -4.66699 -42 -24.667 -42 -60c0 -9.33301 -0.666992 -14.666 -2 -15.999zM332.998 358.998l1 3l-5 1l-2 1v-3l4 -1z" />
    <glyph glyph-name="seven" unicode="7" horiz-adv-x="333" 
d="M281 782l8 -3.99902l11 4c5.33301 0 10 -6.33301 14 -19l-2 -10v-48l2 -12l-122 -527l-9 -2c4 -4 6 -7.33301 6 -10c-22 -95.333 -35 -145.333 -39 -150c-12.667 -2.66699 -23.667 -4 -33 -4c-2 0 -9 0.666992 -21 2c-4.66699 -2.66699 -9 -4 -13 -4h-35
c-4 1.33301 -6 5.33301 -6 12c88.667 363.333 142 586.666 160 669.999h-2c-14 0 -62.667 -0.666992 -146 -2c-0.666992 0 -4.66699 -0.666992 -12 -2c-12.667 0 -19.667 8.33301 -21 25v54c1.33301 15.333 7 23 17 23c128.667 2.66699 209.667 4 243 4zM112 53.001l-1 2
l-4 -4l1 -2v-5l4 1l-1 2l2 4zM143 44.001l-2 -1l-3 -1l1 -3l5 -2l-1 4v3z" />
    <glyph glyph-name="eight" unicode="8" horiz-adv-x="385" 
d="M188 793l2 -0.000976562c72.667 0 121.334 -34 146.001 -102c8 -16.667 12 -60.334 12 -131.001c0 -34 -11 -68 -33 -102c-1.33301 -5.33301 -16 -18.666 -44 -39.999v-2c11.333 0 29.333 -16.667 54 -50c0 -3.33301 4.33301 -12.333 13 -27
c6.66699 -26.667 10 -46.667 10 -60v-37c0 -4.66699 0.666992 -8.33398 2 -11.001c-1.33301 -5.33301 -2 -10 -2 -14c0 -8 0.666992 -24.667 2 -50l-6 -13l4 -8c0 -34 -12.333 -70 -37 -108c-34 -32 -71 -48 -111 -48c-65.333 0 -112.333 32.667 -141 98
c-9.33301 26.667 -14.333 53 -15 79c0 2.66699 0.666992 5.33398 2 8.00098c-1.33301 15.333 -2 28.666 -2 39.999v25c0 2.66699 -0.666992 5.33398 -2 8.00098c1.33301 2.66699 2 5.33398 2 8.00098v13c5.33301 61.333 13.666 93 24.999 95l17 30
c3.33301 0 14.333 7.33301 33 22c-30 18 -46.667 34 -50 48c-10 7.33301 -19.667 30.333 -29 69c-2.66699 28.667 -4 53.667 -4 75c0 90 32 148 96 174c26 7.33301 44.667 11 56 11zM144 634.999v-65c0 -1.33301 0.666992 -2 2 -2l-2 -4c0 -50.667 11 -82.667 33 -96l15 -4
c26 0 42 25 48 75v4c0 93.333 -6.33301 140 -19 140c-7.33301 5.33301 -15 8 -23 8h-16c-21.333 0 -34 -18.667 -38 -56zM150 266.999c0 -107.333 4.33398 -161 13.001 -161c9.33301 -9.33301 17.666 -14 24.999 -14h21c20.667 0 32.334 24.333 35.001 73v52
c0 6.66699 0.666992 13.667 2 21c0 77.333 -17.333 116 -52 116c-24.667 0 -39.334 -24.333 -44.001 -73v-14zM310.001 673.999h-3v-2h3v2zM176.001 37.999v2h-3v-2h3z" />
    <glyph glyph-name="nine" unicode="9" horiz-adv-x="386" 
d="M184 787l17.999 -0.000976562c44 0 82.333 -21.667 115 -65c19.333 -32.667 29 -68 29 -106v-43l2 -11c-2 0 -4.66699 -2.66699 -8 -8c5.33301 0 8 -16.667 8 -50c0 -21.333 -2.66699 -34.666 -8 -39.999v-8c2 0 4.66699 -1.33301 8 -4c1.33301 -28 2 -48.667 2 -62v-21
c0 -24.667 -0.666992 -49.667 -2 -75c1.33301 -9.33301 2 -17 2 -23c-1.33301 -26.667 -2.66602 -44.667 -3.99902 -54c1.33301 -2.66699 2 -4.66699 2 -6c0 -3.33301 -2.66699 -18 -8 -44c2 0 4 -2 6 -6v-9c0 -34 -5.66699 -54 -17 -60c4.66699 0 7 -1.33301 7 -4
c-15.333 -38.667 -38.333 -66.334 -69 -83.001c-30 -14 -56.333 -21 -79 -21c-68.667 0 -116.667 38 -144 114c-4 20 -6 34 -6 42v37c0 14 20 21 60 21h23c12.667 -2 19 -4.66699 19 -8v-2l-2 -4c4 0 8 -23 12 -69c8 -20.667 23.333 -31 46 -31c30.667 0 46 35.333 46 106
c-1.33301 2.66699 -2 4.66699 -2 6c0 3.33301 1.33301 13 4 29l-4 9c1.33301 14.667 2 27.667 2 39v2h-2c-32.667 -15.333 -57.667 -23 -75 -23c-58 0 -99.667 36 -125 108l-6 48c0 18.667 2.66699 30.667 8 36c-5.33301 5.33301 -8 12 -8 20
c0 4.66699 0.666992 8.33398 2 11.001c-1.33301 9.33301 -2 17 -2 23v41c0 10.667 0.666992 20.334 2 29.001c-1.33301 7.33301 -2 16.666 -2 27.999v6c0 80 27 136 81 168c26.667 11.333 49.667 17 69 17zM141.999 624.999c1.33301 -74.667 2 -135 2 -181
c0 -7.33301 0.666992 -19.333 2 -36c-1.33301 -2 -2 -4.66699 -2 -8c8.66699 -30.667 22.667 -46 42 -46h12c25.333 0 39.333 18.667 42 56v5c0 46 -0.666992 120.667 -2 224c-6 30.667 -19.333 46 -40 46h-14c-26.667 -4 -40 -20 -40 -48zM114.999 667.999l-2 8l-2 -1
l-2 -2l2 -6h2zM149.999 756.999l-3 -3h3v3zM168.999 732.999h2l1 4l-5 2z" />
    <glyph glyph-name="colon" unicode=":" horiz-adv-x="230" 
d="M142 523c11.333 0 19 -5 23 -15v-8c-4 0 -6 -1.66699 -6 -5l4 -6l-4 -9c2.66699 -1.33301 4.66699 -2 6 -2v-6c-5.33301 0 -8 -1.33301 -8 -4c4 0 7.33301 -6.33301 10 -19v-11c0 -15.333 -12.667 -23 -38 -23c-12 -1.33301 -29.667 -2 -53 -2
c-12 0 -18.333 7.66699 -19 23v64c0 14 9.33301 21 28 21c28 1.33301 47 2 57 2zM146 107c15.333 0 23 -8.33203 23 -24.999v-13c0 -1.33301 -0.666992 -2 -2 -2l2 -4v-21c0 -6 0.666992 -14 2 -24c0 -14 -7.66699 -21 -23 -21h-34c-6 0 -13.667 -0.666992 -23 -2l-9 4
l-8 -4c-8.66699 3.33301 -13 9.66602 -13 18.999v6c0 8 0.666992 14.667 2 20c-1.33301 7.33301 -2 14.333 -2 21v17c0 18 7 27 21 27c20 1.33301 41.333 2 64 2zM124 491.001h-1l-3 1h-1v-3l3 -1l1 1v1zM124 5.00098l-2 2l-1 -1v-1h3zM127 83.001l-3 -3h5v3h-2z" />
    <glyph glyph-name="semicolon" unicode=";" horiz-adv-x="230" 
d="M120 520c7.33301 -1.33301 11.6689 -1.99902 13.002 -1.99902c0.666992 0 3.33398 0.666992 8.00098 2c15.333 -2 23 -9.66699 23 -23c0 -55.333 -3.33301 -83 -10 -83c-4.66699 -2.66699 -8.33398 -4 -11.001 -4c-2.66699 1.33301 -4.66699 2 -6 2l-30 -2
c-35.333 0 -53 6.33301 -53 19v4c0 10 -0.666992 28.667 -2 56c7.33301 8.66699 11.666 17.667 12.999 27c13.333 0 20.333 0.666992 21 2v-2c1.33301 1.33301 12.666 2.66602 33.999 3.99902zM92.0029 105.001c12 -1.33301 24.667 -2.00098 38 -2.00098h13
c12.667 0 19 -10 19 -30c1.33301 -7.33301 2 -14.333 2 -21l-2 -11c1.33301 -9.33301 2 -18.333 2 -27c0 -22.667 -12.667 -53 -38 -91c-10.667 -24 -19 -37.667 -25 -41c-14 -1.33301 -21 -2.66602 -21 -3.99902l-5 2h-10c-1.33301 0 -2 -0.666992 -2 -2
c-7.33301 2 -11 4 -11 6c0 11.333 15 46 45 104v4c-26 3.33301 -39 7 -39 11v2l2 9c-2.66699 0 -4.66699 4 -6 12c0 3.33301 0.666992 6.33301 2 9c-1.33301 14.667 -2 26 -2 34v4c0 20 8.66699 30 26 30zM76.0029 500l-2 -2h4zM111.003 505l-3 -3h5v3h-2z" />
    <glyph glyph-name="less" unicode="&#x3c;" horiz-adv-x="404" 
d="M350 632c6.66699 0 10 -16.667 10 -50c0 -1.33301 -0.666992 -2 -2 -2l2 -11v-20c0 -17.333 -20 -33.333 -60 -48c-0.666992 -2.66699 -43 -25.667 -127 -69c-16.667 -11.333 -25 -17.666 -25 -18.999v-2l110 -58c68 -34.667 102 -54.667 102 -60
c1.33301 -2.66699 2 -6.33398 2 -11.001v-70c0 -8 -3.33301 -13 -10 -15c-33.333 11.333 -74.333 32 -123 62c-38 22 -97.667 53.333 -179 94c-4 6.66699 -6 15.667 -6 27v15c0 8.66699 0.666992 19 2 31l-2 12l2 13c-1.33301 2.66699 -2 4.66699 -2 6
c0 12.667 16.667 25 50 37c6.66699 6 44 27 112 63c46.667 28.667 94.667 53.667 144 75zM60 436l1 4l-3 -2h-1v-4z" />
    <glyph glyph-name="equal" unicode="=" horiz-adv-x="400" 
d="M258 572c1.33301 0 2 -0.666992 2 -2c16 1.33301 27.667 2 35 2h42c18 0 27 -11 27 -33c0 -1.33301 -0.666992 -3.33301 -2 -6c1.33301 -9.33301 2 -17 2 -23v-15c0 -13.333 -7 -20.666 -21 -21.999h-33c-9.33301 0 -18.333 0.666992 -27 2
c0 -2.66699 -75.667 -5.66699 -227 -9c-15.333 0 -23 11.333 -23 34v29c0 5.33301 -0.666992 13 -2 23c0 9.33301 7 14.666 21 15.999c45.333 0 110.333 0.666992 195 2zM299 385c7.33301 -1.33301 11.666 -2 12.999 -2c2 1.33301 4.66699 2 8 2l15 -4
c4 2.66699 7.33301 4 10 4c12.667 0 19.667 -8.33301 21 -25v-46c0 -19.333 -8.33301 -29 -25 -29c-100 -2.66699 -150 -5.33398 -150 -8.00098l-81 4c-2 -1.33301 -21.333 -2.66602 -58 -3.99902c-11.333 0 -17 10.333 -17 31v25c0 1.33301 -0.666992 2 -2 2l2 4v15
c0 7.33301 7 13 21 17c0.666992 2.66699 2 4 4 4c86.667 0 166.334 3.33301 239.001 10zM68 536l8 1l3 7l-6 2l-3 -5zM341 297h3l-3 4v-4z" />
    <glyph glyph-name="greater" unicode="&#x3e;" horiz-adv-x="404" 
d="M52 631c4 0 67.999 -32.001 191.999 -96.001c81.333 -35.333 122 -59 122 -71l5 -91c0 -14 -24.333 -31.333 -73 -52c-80 -45.333 -148.667 -82 -206 -110h-2l-4 2c-10.667 -12.667 -20.667 -19 -30 -19h-2c-4 0.666992 -6 6.33398 -6 17.001v37
c0 8 0.666992 17.667 2 29c-1.33301 2 -2 6.33301 -2 13c0 2.66699 5 6 15 10c0 5.33301 9 11 27 17h4c0 4.66699 28.333 20.667 85 48c56.667 29.333 85 45 85 47v2c-5.33301 5.33301 -21.666 15.333 -48.999 30l-3 4c-2.66699 -1.33301 -4.66699 -2 -6 -2
c-102.667 52 -154.667 79 -156 81c-4 13.333 -6 35.333 -6 66v19c0 10.667 2.66699 17 8 19zM343.999 430.999h5l-5 5v-5z" />
    <glyph glyph-name="question" unicode="?" horiz-adv-x="390" 
d="M195 785c71.333 0 119.669 -29.6631 145.002 -88.9961c8.66699 -23.333 13 -46.333 13 -69v-10c-14.667 -60 -30 -103.667 -46 -131c-47.333 -81.333 -71 -136 -71 -164c1.33301 -40.667 2 -74 2 -100v-34c0 -13.333 -11 -20 -33 -20h-50c-15.333 0 -23 8.33301 -23 25
v27c0 5.33301 -0.666992 13 -2 23l6 12v2l-4 6v9c0 2 2.33301 4 7 6v-4h6c-11.333 7.33301 -17 17.666 -17 30.999c0 55.333 23 115.666 69 180.999c16.667 35.333 27 53.333 31 54c2.66699 0 4 0.666992 4 2l11 67v20c0 31.333 -13.333 49.333 -40 54h-21
c-21.333 0 -34.333 -15 -39 -45c0 -6.66699 1.33301 -21.334 4 -44.001c0 -10.667 -7 -17 -21 -19c-51.333 0 -77 7.66699 -77 23c-1.33301 7.33301 -2 14.333 -2 21v21c0 3.33301 2.66699 5.33301 8 6v8c-4.66699 0 -7.33398 5 -8.00098 15
c3.33301 21.333 13.666 45.666 30.999 72.999c28.667 28.667 67.667 43 117 43zM218.003 104.004c14.667 0 22 -11.666 22 -34.999c2 -6.66699 3 -22.667 3 -48v-4c0 -16.667 -10 -25 -30 -25c-1.33301 0 -3.33301 0.666992 -6 2c-9.33301 -1.33301 -17 -2 -23 -2h-21
c-19.333 0 -29 8.33301 -29 25l-2 19c0 1.33301 0.666992 6.66602 2 15.999l-2 21c0 19.333 10.333 29 31 29c4 0 22.333 0.666992 55 2zM209.003 268.005l5 -2l-1 8l-3 2l-1 -3v-5zM213.003 78.0049l2 -2l4 5l-3 1l-3 -3v-1z" />
    <glyph glyph-name="at" unicode="@" horiz-adv-x="812" 
d="M430 800c96.667 0 179.33 -34.001 247.997 -102.001c34 -36.667 57.333 -92.667 70 -168c2 -2 3 -7 3 -15c-2 -4 -3.66699 -6 -5 -6c3.33301 -14 5.66602 -21 6.99902 -21l-2 -14v-21c0 -65.333 -13.333 -137 -40 -215c-18.667 -31.333 -41 -53.333 -67 -66
c-12.667 -6.66699 -33.334 -12.334 -62.001 -17.001c-26 0 -53.667 10.333 -83 31c-9.33301 11.333 -17.666 17 -24.999 17c-26 -32 -59.333 -48 -100 -48c-58.667 0 -99 23.667 -121 71c-4 15.333 -6 26.333 -6 33v2c0 1.33301 0.666992 2 2 2c-0.666992 6 -2 9 -4 9
c0 1.33301 0.666992 2 2 2l-2 25v41c0.666992 80 11 148 31 204c26 37.333 62 56 108 56c26 0 54 -13 84 -39h4c5.33301 23.333 13 35 23 35c38.667 -3.33301 58 -11.666 58 -24.999c1.33301 -2.66699 2 -4.66699 2 -6c-11.333 -98 -17 -158.333 -17 -181l-4 -2l2 -21v-60
c4 -42 19.333 -63 46 -63h13c32 0 55.333 44.667 70 134c0 1.33301 -0.666992 3.33301 -2 6l6 39l-2 15c0.666992 6.66699 3 15.667 7 27c0 4 -1.66699 13 -5 27l7 12c-5.33301 0 -9.66602 16 -12.999 48l-10 7l2 4v2c0 38.667 -25 80.334 -75 125.001
c-46.667 23.333 -93.667 35 -141 35c-78 0 -136.333 -17.333 -175 -52c-28 -26.667 -43.333 -40 -46 -40c0 -4.66699 -11 -27.334 -33 -68.001c-15.333 -38.667 -27.333 -86.667 -36 -144h-4l2 -8l2 -4c-2.66699 -28.667 -4 -55.667 -4 -81c0 -23.333 2.33301 -56 7 -98
c23.333 -78 54.333 -127.333 93 -148c32.667 -23.333 76.334 -35 131.001 -35c86 0 151.333 21.333 196 64h4c4 0 6.66699 -8.33301 8 -25c0 -42.667 -6.33301 -64 -19 -64c-47.333 -33.333 -106.666 -50 -177.999 -50h-40c-14 0 -23 3.33301 -27 10c0 -2 -2 -4 -6 -6h-11
c-44.667 4 -93 27 -145 69c-36 38 -55.333 65.667 -58 83v6c-19.333 4.66699 -32.666 66.334 -39.999 185.001c1.33301 62.667 5.33301 94 12 94l-4 6v2c0 35.333 12.667 92.333 38 171c12.667 17.333 23.667 37.333 33 60c17.333 28 36.666 51 57.999 69
c62.667 50 115.334 75 158.001 75c1.33301 -2.66699 2 -5 2 -7h3c6 11.333 29.333 17 70 17zM336.996 431.999l1.99902 0.000976562l-2 -4v-2c0 -4.66699 0.666992 -7 2 -7c-2 -27.333 -4.33301 -41 -7 -41l3 -15v-4c0 -22.667 -1.66699 -42 -5 -58
c0 -43.333 16.667 -65 50 -65h7c41.333 0 62 34.667 62 104c2 74 4.66699 111 8 111c6 0 9 1.33301 9 4v2c-8.66699 0 -13 3.33301 -13 10c0 29.333 -18 46.666 -54 51.999h-8c-29.333 0 -46.666 -22.667 -51.999 -68c-1.33301 -8 -2 -14.333 -2 -19zM470.995 1l1 -2l3 1
l-1 2l-3 1v-2zM478.995 -14h-2l-1 -1h1v-2h2v3zM502.995 35h2l-2 3l1 1h-4l1 -5zM529.995 37h3l-3 3v-3z" />
    <glyph glyph-name="A" unicode="A" 
d="M143 782h110.001c16.667 0 25 -9 25 -27l113 -722v-22c0 -8 -7.66699 -13 -23 -15h-61c-15.333 0 -24.333 21.333 -27 64l-14 138h-65l-5 4h-3c-4.66699 -2.66699 -9 -4 -13 -4h-37c-15.333 -132 -26.333 -198 -33 -198c-5.33301 -2.66699 -11 -4 -17 -4h-58
c-10.667 0 -18.334 6.33301 -23.001 19c23.333 166.667 38.666 265 45.999 295c0 1.33301 -0.666992 3.33301 -2 6c38.667 296 60 448 64 456c6.66699 6.66699 14.334 10 23.001 10zM195.001 647c-10 -91.333 -24 -207.667 -42 -349l5 -2h89v2l2 4
c-29.333 215.333 -45.333 330.333 -48 345h-6zM363.001 38.999l1 -1l4 -1l1 2h-2l-3 3zM326.001 34.999v4l-2 -2v-2h2zM359.001 -2.00098h3v1h-3v-1z" />
    <glyph glyph-name="B" unicode="B" horiz-adv-x="397" 
d="M61 777c1.33301 0 1.99707 -0.666016 1.99707 -1.99902c3.33301 0 9 0.666992 17 2c19.333 -1.33301 36 -2 50 -2c1.33301 0 3.33301 0.666992 6 2c2.66699 -1.33301 5.33398 -2 8.00098 -2l4 -2v2h13c10.667 -2.66699 16.667 -4 18 -4h4l8 6h27
c10.667 0 31.334 -5 62.001 -15c29.333 -14 51 -39.667 65 -77c8 -22.667 12 -58.334 12 -107.001v-14c0 -46.667 -8.33301 -79.334 -25 -98.001c0 -12 -14.333 -29.333 -43 -52c42.667 -30 64 -54 64 -72c11.333 -30 17 -64 17 -102v-12c0 -7.33301 -1.33301 -11 -4 -11
c2.66699 -4.66699 4 -10 4 -16v-40c0 -39.333 -7.66699 -65.333 -23 -78l2 -10c-32 -50 -79.667 -75 -143 -75h-25c-4 0 -8.66699 1.33301 -14 4l-10 -2h-36l-10 -2h-33c-19.333 0 -29 5.66699 -29 17v4h4v2l-7 10c2 38.667 3 70.667 3 96v28c0 8 0.666992 19 2 33
c-1.33301 2.66699 -2 6.33398 -2 11.001l2 8c-3.33301 19.333 -5 38 -5 56l3 13c-2 7.33301 -3 14 -3 20v25c0 6 1.66699 11.667 5 17c-3.33301 4.66699 -5.66602 14.334 -6.99902 29.001c1.33301 82 2 144.667 2 188l-2 38v25c0 8.66699 0.666992 17.667 2 27
c-1.33301 6 -2 11.667 -2 17c1.33301 2.66699 2 5 2 7c-1.33301 2.66699 -2 6.66699 -2 12v71c0 13.333 5.66699 21.666 17 24.999zM145.997 679.001l0.000976562 -8l-4 -6v-3c5.33301 0 8 -2.66699 8 -8c0 -8.66699 -0.666992 -13.667 -2 -15
c1.33301 -15.333 2 -28.666 2 -39.999v-77c0 -1.33301 1 -2 3 -2c-2 -8 -5 -12 -9 -12v-5c4.66699 0 7.66699 -4.66699 9 -14l-3 -4c1.33301 -19.333 3.66602 -29 6.99902 -29h28c34.667 0 54.667 13 60 39c3.33301 7.33301 5.33301 22.666 6 45.999
c0 80.667 -5.33301 121 -16 121c0 2.66699 -7.66699 9.66699 -23 21l-4 -2h-25c-6.66699 0 -14.667 -0.666992 -24 -2h-13zM194.998 355.001c-4.66699 0 -7.99902 0.666992 -9.99902 2l-14 -2h-16c-3.33301 -0.666992 -5 -2 -5 -4v-71h-2l5 -75
c0 -13.333 0.666992 -29.333 2 -48l-2 -8c1.33301 -7.33301 2 -14.666 2 -21.999c0 -6 -0.666992 -13.667 -2 -23c1.33301 -2.66699 2 -4.66699 2 -6h63c30.667 6 46 26.333 46 61c0.666992 0 2.66699 3.66699 6 11c0 1.33301 -1.33301 8.66602 -4 21.999
c2.66699 4.66699 4 9 4 13c-2.66699 5.33301 -4.66699 8 -6 8c0 1.33301 0.666992 2 2 2c-1.33301 12 -2 21 -2 27c0 4.66699 0.666992 9.66699 2 15c-4.66699 51.333 -10.334 77 -17.001 77c-3.33301 9.33301 -8 16.333 -14 21h-40zM263.999 29.001l-1 1h-1l-1 -1l-1 -1
l-1 -2l1 -3l1 -1l3 2v5z" />
    <glyph glyph-name="C" unicode="C" horiz-adv-x="396" 
d="M204 794c76 0 125.334 -32.0049 148.001 -96.0049c0 -2.66699 2.66699 -11 8 -25c-1.33301 -7.33301 -2 -11.333 -2 -12l6 -11v-6c0 -2.66699 -2.66699 -4 -8 -4v-13h2c2.66699 1.33301 4.66699 2 6 2v-14l-2 -13c1.33301 -2 2 -6 2 -12
c0 -7.33301 -6.66699 -11.666 -20 -12.999h-59c-14.667 0 -22 7.66699 -22 23v21c0 48.667 -19.667 73 -59 73c-29.333 0 -48 -14 -56 -42l-4 -52c1.33301 -7.33301 2 -12.666 2 -15.999c0 -1.33301 -0.666992 -10.333 -2 -27l2 -15c-1.33301 -7.33301 -2 -15 -2 -23
c0 -1.33301 0.666992 -3.33301 2 -6l-2 -13v-16h-8v-4c0 -3.33301 1.33301 -5 4 -5c0 2 0.666992 3 2 3c0 -6 1.33301 -9 4 -9l-2 -10v-4c0 -1.33301 0.666992 -2 2 -2l-2 -5v-8c0 -3.33301 0.666992 -6 2 -8l-2 -4c1.33301 -14.667 2 -26 2 -34
c0 -5.33301 -0.666992 -13 -2 -23l2 -12l-2 -15l2 -10l-4 -54c2.66699 -20 4 -31.667 4 -35c-1.33301 -33.333 -2 -59.666 -2 -78.999h2c-1.33301 -2.66699 -2 -5 -2 -7c0 -44 21.333 -66 64 -66c34.667 7.33301 52 19.666 52 36.999c2 10 5 15 9 15
c2 -1.33301 4.66699 -2 8 -2v4c-8 0 -12 2 -12 6v4c0 2.66699 2 4 6 4v5l-8 10c0 28 6 42 18 42h23c6.66699 0 13.667 -1 21 -3c5.33301 2 11.666 3 18.999 3c15.333 0 23 -7.66699 23 -23v-42c0 -8 -4.33301 -12 -13 -12v-15c0 2.66699 2.66699 4 8 4
c1.33301 -2 2 -4.66699 2 -8c-16 -54 -40 -89.333 -72 -106c-24.667 -12.667 -40.667 -19 -48 -19c-7.33301 1.33301 -11.666 2 -12.999 2c-4 -2.66699 -8 -4 -12 -4h-17c-76.667 0 -128 35.333 -154 106c-5.33301 36.667 -8 72 -8 106v71c0 6.66699 0.666992 13.667 2 21
c-1.33301 4.66699 -2 10.667 -2 18v27c0 12 0.666992 24.667 2 38l-2 10c1.33301 12.667 2 20.334 2 23.001c-1.33301 25.333 -2 42 -2 50c2.66699 4.66699 4 8 4 10c-2.66699 4.66699 -4 8.33398 -4 11.001c2.66699 9.33301 4.66699 19 6 29c-2.66699 4.66699 -4 8 -4 10
c2.66699 14.667 4 22.334 4 23.001c-1.33301 0 -2 0.666992 -2 2c3.33301 3.33301 7 5 11 5v4c0 2.66699 -1.66699 4 -5 4c-2 -1.33301 -4.66699 -2 -8 -2l-2 10v11c0 21.333 2 35 6 41c-2.66699 5.33301 -4 11 -4 17c0 11.333 3.33301 28.666 10 51.999h5l8 -9h4v5
c-5.33301 8.66699 -8 15.334 -8 20.001c1.33301 4.66699 2.66602 7 3.99902 7c2.66699 -1.33301 4.66699 -2 6 -2l4 6c-2.66699 3.33301 -4 6 -4 8c30.667 44.667 75 67 133 67zM307.001 187.995h2l1 -1v2l-3 1v-2z" />
    <glyph glyph-name="D" unicode="D" horiz-adv-x="413" 
d="M77 781l120.999 0.00195312c96 0 152 -38 168 -114c6 -30.667 9 -59.334 9 -86.001v-284c0 -21.333 -1.33301 -38 -4 -50c2.66699 -4.66699 4 -9 4 -13v-60c0 -1.33301 0.666992 -2 2 -2c-6.66699 -54 -18.667 -93 -36 -117c-33.333 -38.667 -72.666 -58 -117.999 -58h-2
v2l-11 -2h-143c-12.667 0 -19 8.33301 -19 25c0 5.33301 0.666992 8 2 8l-2 25v58c0 10 0.666992 18.333 2 25c0 3.33301 -0.666992 6.33301 -2 9c-1.33301 99.333 -2 174.666 -2 225.999v271c0 28 -0.666992 66.667 -2 116c0 14 11 21 33 21zM151.999 677.002v-158.002
c0 -6 -0.666992 -13.667 -2 -23l2 -4l-4 -8l2 -11c-2.66699 0 -4 -1.33301 -4 -4v-2l6 -12c-13.333 -6 -20.333 -10.333 -21 -13v-4c10 2.66699 15.667 4 17 4c0 -3.33301 1.33301 -10.333 4 -21c-1.33301 -9.33301 -2 -14.666 -2 -15.999l2 -15l-2 -8
c2.66699 0 4.66699 -48 6 -144c-1.33301 -36 -3.33301 -54 -6 -54c2.66699 -4.66699 4 -8.66699 4 -12v-7l-4 -14c2.66699 -4.66699 4 -9 4 -13v-39h4c10 0 15.667 -0.666992 17 -2c9.33301 1.33301 17 2 23 2h23c32 0 48 41.667 48 125v27c-3.33301 148 -5 237.667 -5 269
c0 30.667 1 55.334 3 74.001c0 58 -17.333 87 -52 87h-59c-2.66699 0 -4 -1.33301 -4 -4zM285.999 64l4 -4l-1 4h-3zM259.999 89h-5v-6h5v6z" />
    <glyph glyph-name="E" unicode="E" horiz-adv-x="344" 
d="M225 777c4.66699 0 7.99902 -0.672852 9.99902 -2.00586c12 1.33301 22 2 30 2h37c14 0 21 -10.667 21 -32v-37c0 -20 -8.33301 -30 -25 -30c-26 -1.33301 -54 -2 -84 -2h-59c-2.66699 -0.666992 -4 -2 -4 -4v-19h-8c5.33301 -10 8 -19.667 8 -29
c1.33301 -5.33301 2 -13 2 -23v-26c0 -1.33301 0.666992 -2 2 -2l-2 -4c2.66699 -20.667 4 -36 4 -46v-34c0 -6.66699 -0.666992 -17 -2 -31c3.33301 -0.666992 5 -2 5 -4c35.333 1.33301 61 2 77 2h30c16.667 0 25 -11.333 25 -34v-4c0 -6 -0.666992 -11.667 -2 -17
c1.33301 -5.33301 2 -10.333 2 -15c0 -19.333 -8.33301 -29 -25 -29h-44c-6 0 -14 0.666992 -24 2c-4 -1.33301 -6 -2.66602 -6 -3.99902c-2.66699 1.33301 -4.66699 2 -6 2l-13 -2l-12 2l-5 -23c2 -2.66699 3.66699 -9.66699 5 -21c-3.33301 -4.66699 -5 -9 -5 -13
c2 -12 3 -19 3 -21c-3.33301 0 -5 -1.33301 -5 -4l-4 2h-4v-10c2 1.33301 5.33301 2 10 2l3 -4c-2.66699 -2 -5.66699 -3 -9 -3v-8c0 -4 3 -10.333 9 -19c-2 -7.33301 -3 -11.333 -3 -12l3 -11l-5 -40c4.66699 -7.33301 7 -20.666 7 -39.999h-2l2 -4v-25l2 -4
c8 0 31 0.666992 69 2c50 -1.33301 78.667 -2 86 -2c10 -3.33301 15 -7.66602 15 -12.999c-1.33301 -7.33301 -2 -11.666 -2 -12.999c2.66699 -4 4 -8 4 -12v-4c0 -3.33301 -1.33301 -5 -4 -5l-7 5h-2c0 -2 -0.666992 -4.33301 -2 -7
c4.66699 -2.66699 9.66699 -4.66699 15 -6c-2 -14 -4 -23 -6 -27c1.33301 -2.66699 2 -5.66699 2 -9c-8.66699 -5.33301 -17 -8 -25 -8h-223c-19.333 0 -29 7.66699 -29 23c0 7.33301 0.666992 21.333 2 42c-1.33301 2.66699 -2 5.33398 -2 8.00098c2.66699 0 4 1.66699 4 5
c-2.66699 12.667 -4 21.667 -4 27v25l2 11l10 -2v6c-8 0 -12 4 -12 12v47c0 2.66699 -1 5.33398 -3 8.00098c0 1.33301 1 2 3 2c-2 14 -3 24.667 -3 32v19c0.666992 9.33301 2.33398 14 5.00098 14c-3.33301 4.66699 -5 9 -5 13v12l5 7c-3.33301 12.667 -5 20.334 -5 23.001
v44l5 -2l-5 10v32c-1.33301 2 -2 5.33301 -2 10l2 34c0 4 -0.666992 9 -2 15c1.33301 17.333 2 27.666 2 30.999c0 100.667 -3.33301 166.667 -10 198c0 4.66699 0.666992 10.667 2 18c-1.33301 7.33301 -2 14.333 -2 21c0 18.667 11.333 28 34 28
c0.666992 0 4.66699 0.666992 12 2c2 0 6.33301 -3.66699 13 -11c0 1.33301 0.666992 2 2 2l-2 5c0 2.66699 1.33301 4 4 4h82c7.33301 0 17 -0.666992 29 -2zM63.999 399.994l-1 -5l3 -4h1l2 1l-2 4z" />
    <glyph glyph-name="F" unicode="F" horiz-adv-x="337" 
d="M237 783l5.00195 -1.99805c9.33301 1.33301 16.666 2 21.999 2h32c15.333 0 23 -7 23 -21v-6l-7 -8c4.66699 -4.66699 7 -18 7 -40v-4c0 -12.667 -14 -19 -42 -19h-21l-21 3v2l-18 -2c-46 -2 -69 -5 -69 -9v-21c0 -4.66699 -2 -9.33398 -6 -14.001
c4 -5.33301 6 -11.666 6 -18.999v-162c0.666992 -2.66699 2 -4 4 -4h54c9.33301 0 18.333 -0.666992 27 -2c5.33301 1.33301 13 2 23 2c16.667 0 25 -14 25 -42v-27c0 -20.667 -8.33301 -31 -25 -31h-79l-10 2h-2c-10.667 0 -16.334 -2 -17.001 -6v-48
c0 -10 -1.33301 -15 -4 -15l2 -4v-4l-2 -4v-40c2.66699 0 4 -1.33301 4 -4v-50c0 -10 -0.666992 -17.667 -2 -23c1.33301 -8.66699 2 -17.667 2 -27v-120c-5.33301 -4.66699 -8 -9.66699 -8 -15c-16 -2.66699 -25.667 -4 -29 -4c-18.667 1.33301 -34.667 2 -48 2
c-11.333 0 -17 14 -17 42v45l6 9v2c-4 5.33301 -6 11.666 -6 18.999v49c0.666992 3.33301 2 5 4 5l6 -11l-6 21l-4 6v7c0 84 -0.666992 153.333 -2 208c1.33301 42 2 99.333 2 172c0 14 5 21 15 21l6 6v2h-2c-7.33301 -4 -13 -6 -17 -6
c-2.66699 69.333 -4 124.666 -4 165.999c2 12.667 8.33301 19 19 19c4 0 6 -0.666992 6 -2c18.667 1.33301 32.667 2 42 2h97c8 0 17.667 0.666992 29 2zM78.002 238.002l-2 -2v-2l1 -2l2 1l2 4l-1 1h-2zM71.002 223.002l-1 -1v-2l2 -1h2l1 2l-2 2h-2z" />
    <glyph glyph-name="G" unicode="G" 
d="M204 796c20.667 0 42.999 -4.66699 66.999 -14l13 -7h2c52.667 -30 79 -86 79 -168c0 -18 -9 -27 -27 -27h-59c-12 0 -18 12.333 -18 37c0 54 -18 81 -54 81h-5c-38.667 0 -58 -24 -58 -72v-23c0 -30 0.666992 -70.333 2 -121c0 -4 -2 -10.333 -6 -19
c2.66699 -4.66699 4 -8.66699 4 -12v-36c0 -15.333 -1.33301 -62.333 -4 -141c0 -109.333 4 -164 12 -164c10 -15.333 23.333 -23 40 -23h23c28 0 44 19.333 48 58v202l2 14h-44c-12.667 3.33301 -19 10.333 -19 21v54c0 15.333 7.66699 23 23 23h69l8 -6h2
c4.66699 5.33301 17.334 8 38.001 8c16.667 0 25 -13.667 25 -41v-52c0 -12.667 -0.666992 -21 -2 -25c1.33301 -12 2 -22.667 2 -32v-156c-8 -73.333 -22 -110 -42 -110l2 -4c-28.667 -33.333 -64.667 -50 -108 -50c0 -2.66699 -3.33301 -4 -10 -4
c-79.333 0 -132 32.667 -158 98c-8.66699 30 -13 54.333 -13 73v4c0 1.33301 0.666992 2 2 2l-2 4v139c0 1.33301 -0.666992 2 -2 2c0 1.33301 0.666992 2 2 2c0 9.33301 -0.666992 23.333 -2 42c0 222 5.66699 333 17 333c0 19.333 16.667 45 50 77
c23.333 18 54.333 29 93 33h8zM292.999 252h-1l-1 -1l-1 -2v-1l3 -1l3 2v4z" />
    <glyph glyph-name="H" unicode="H" horiz-adv-x="424" 
d="M118 780c24 0 36 -7.66895 36 -23.002v-49c0 -8 0.666992 -18 2 -30c-1.33301 -2 -2 -4.66699 -2 -8c1.33301 -8 2 -13.667 2 -17c0 -6.66699 -1.33301 -10 -4 -10c1.33301 -10 2 -18 2 -24c0 -23.333 0.666992 -62.666 2 -117.999l2 -4
c-2.66699 -7.33301 -4 -12.333 -4 -15c0.666992 -18 2.66699 -27 6 -27h32c26.667 0 42 -2.33301 46 -7h2l7 4h23c-1.33301 36 -2 64.333 -2 85v209c0 21.333 7 32 21 32h57c22.667 0 34 -10 34 -30v-67c0 -23.333 -0.666992 -41.666 -2 -54.999
c1.33301 -12 2 -29.667 2 -53v-13c0 -12 -0.666992 -24.667 -2 -38l2 -10c-1.33301 -11.333 -2 -23.333 -2 -36v-5c0 -2.66699 -2.33301 -4 -7 -4v-4c4.66699 -5.33301 7 -10.333 7 -15v-8c0 -3.33301 -0.833008 -11 -2.5 -23s-2.5 -19.333 -2.5 -22v-2
c4.66699 -2.66699 7 -6.66699 7 -12c-1.33301 -4.66699 -2.66602 -7 -3.99902 -7l2 -25v-13c0 -10 -0.666992 -17.667 -2 -23c1.33301 -9.33301 2 -18.333 2 -27v-38c0 -10 -0.666992 -18.667 -2 -26c1.33301 -14 2.66602 -42.667 3.99902 -86
c-1.33301 -13.333 -2 -31.666 -2 -54.999l-2 -9c2.66699 -5.33301 4 -9.33301 4 -12c0 -3.33301 -1.33301 -8.33301 -4 -15c2.66699 -5.33301 4 -11 4 -17c0 -24 -7.66699 -36 -23 -36h-26c-3.33301 0 -7.33301 1.33301 -12 4c-4.66699 -2.66699 -9 -4 -13 -4h-9
c-19.333 0 -29 10.667 -29 32l2 10v7l-2 12c1.33301 2 2 6.33301 2 13c0 1.33301 -0.666992 2 -2 2l2 11v272c-35.333 1.33301 -63.333 2 -84 2h-28c-2.66699 0 -4 -1.33301 -4 -4v-2c0 -18 0.666992 -38.333 2 -61c0 -3.33301 -0.666992 -6.33301 -2 -9
c1.33301 -12 2 -21.667 2 -29v-15c0 -27.333 0.666992 -65.333 2 -114l2 -4c-1.33301 -2.66699 -2 -5.66699 -2 -9v-11c0 -1.33301 0.666992 -2 2 -2c0 -1.33301 -0.666992 -2 -2 -2l2 -25v-49c0 -14 -6.33301 -21 -19 -21h-70c-14 0 -21 8.66699 -21 26v14
c0 1.33301 1.66699 7 5 17l-7 4l2 5v6c0 1.33301 -0.666992 2 -2 2l2 4l-2 13c1.33301 10 2 18.333 2 25l-2 11c0 1.33301 0.666992 2 2 2c-1.33301 16.667 -2 28.667 -2 36v110c0 7.33301 0.666992 17 2 29l-6 36c1.33301 24 2 42.333 2 55v66
c0 8.66699 0.666992 17.667 2 27c-1.33301 5.33301 -2 13 -2 23v28c0 6 0.666992 13.667 2 23c-1.33301 2.66699 -2 6.33398 -2 11.001l2 19l-2 4l2 10c0 3.33301 -0.666992 6.33301 -2 9c2 32 4 48 6 48c-2.66699 4.66699 -4 9 -4 13v28
c0 9.33301 0.666992 17.666 2 24.999c-1.33301 7.33301 -2 15.666 -2 24.999v4c0 17.333 11.333 26 34 26h36zM306 261.998l-4 -6l5 1l5 2v2l-1 1h-5z" />
    <glyph glyph-name="I" unicode="I" horiz-adv-x="201" 
d="M67 779h63.001c15.333 0 23 -8.33301 23 -25c0 -31.333 -1.33301 -61.333 -4 -90c1.33301 -3.33301 2 -5.66602 2 -6.99902c0 -2.66699 -0.666992 -5.33398 -2 -8.00098c4 -78.667 6 -152 6 -220v-23c0 -60.667 -0.666992 -144.667 -2 -252
c-1.33301 -5.33301 -2 -10 -2 -14c1.33301 -3.33301 2.66602 -11 3.99902 -23l-6 -11v-2c2.66699 -10 4 -15.333 4 -16v-5c0 -10 -0.666992 -18 -2 -24c1.33301 -8.66699 2 -17.667 2 -27v-6c0 -19.333 -8.33301 -29 -25 -29c-15.333 0 -29.333 -0.666992 -42 -2l-13 2
l-10 -2c-11.333 0 -17 18.667 -17 56v4c0 2 0.666992 9.33301 2 22l-2 4l2 9c-2.66699 14 -4 22.333 -4 25c0.666992 22 2 33 4 33c-1.33301 14 -2 24.333 -2 31v220c0 11.333 0.666992 21.333 2 30c-1.33301 6.66699 -2 16 -2 28v134l2 4c-1.33301 0 -2 0.666992 -2 2l4 2
c1.33301 -2.66699 2 -4.66699 2 -6h2c2 0 4.33301 2 7 6c-5.33301 2 -10.333 5.33301 -15 10c0 2 0.666992 3 2 3c0 4.66699 -1.33301 19.667 -4 45c1.33301 16 2 31.333 2 46v14c0 10.667 -0.666992 23.667 -2 39c0 15.333 7.66699 23 23 23zM104.001 22l-3 -7l2 -4h1l2 1
v4z" />
    <glyph glyph-name="J" unicode="J" horiz-adv-x="390" 
d="M289 780l8.99902 -4.99805c14.667 3.33301 24.334 5 29.001 5c5.33301 -2 12.333 -4 21 -6v-2l2 -15l2 -4v-5l-4 -12v-4c2.66699 -4.66699 4 -8.33398 4 -11.001s-0.666992 -5.33398 -2 -8.00098c1.33301 -14 2.66602 -22.333 3.99902 -25
c-1.33301 -9.33301 -2 -17 -2 -23v-4c0 -4.66699 0.666992 -11 2 -19l-2 -4c1.33301 -12 2 -21.667 2 -29v-4c0 -8 -0.666992 -19 -2 -33l2 -5c0 -4 -0.666992 -6 -2 -6c1.33301 -22.667 2 -40 2 -52v-254c-4.66699 -14.667 -7 -24.334 -7 -29.001
c4.66699 -1.33301 7 -5.33301 7 -12v-48c0 -84.667 -30.667 -140 -92 -166c-2 1.33301 -4.66699 2 -8 2c-7.33301 -11.333 -26.666 -17 -57.999 -17c-47.333 2.66699 -71.666 7.66699 -72.999 15c-12.667 6 -22.334 13.333 -29.001 22c-19.333 0 -34 10.667 -44 32
c-18 26.667 -27 62.667 -27 108v27c0 14 5.66699 21 17 21h68c15.333 0 23 -10.667 23 -32c0 -5.33301 -0.666992 -17.666 -2 -36.999c0 -38.667 18 -58 54 -58h11c37.333 4 56 21.333 56 52v166c0 5.33301 -0.666992 11.666 -2 18.999c1.33301 2.66699 2 4.66699 2 6
c-1.33301 18.667 -2 30.334 -2 35.001s0.666992 9.66699 2 15c-1.33301 9.33301 -2 18.333 -2 27v25c0 3.33301 -0.666992 6 -2 8l2 5c0 9.33301 -0.666992 14 -2 14c1.33301 32.667 2 57 2 73v208c0 1.33301 1.33301 7 4 17c0 2 -1.33301 5.33301 -4 10
c0 11.333 13.667 17 41 17zM223.999 30.002l-1 -7l5 -1l-1 4z" />
    <glyph glyph-name="K" unicode="K" horiz-adv-x="419" 
d="M128 780c15.333 0 22.998 -8.3291 22.998 -24.9961l2 -8c-1.33301 -26 -2 -49 -2 -69v-22c0 -22.667 0.666992 -38.667 2 -48c-1.33301 -14 -2 -31.333 -2 -52v-25c0 -22 0.666992 -58 2 -108c9.33301 0 15 9 17 27c5.33301 2 8 4 8 6l-2 10
c66.667 200 102 302.667 106 308c4.66699 4 16.334 6 35.001 6h61c9.33301 0 14 -3.33301 14 -10c-46.667 -131.333 -74.334 -204 -83.001 -218l-8 6l-2 -4v-2c5.33301 -4.66699 8 -9 8 -13l-50 -137v-2c0 -5.33301 2 -13 6 -23h-2
c8.66699 -11.333 53 -125.666 133 -342.999c6 -18 9 -28.667 9 -32v-2c-1.33301 -4 -5.66602 -6 -12.999 -6l-29 2l-8 -2c-5.33301 1.33301 -10.333 2 -15 2c-3.33301 0 -8.66602 -0.666992 -15.999 -2c-24 0 -39.333 18 -46 54c-48.667 132 -82.667 232 -102 300l-6 20
l-11 9c-2.66699 -0.666992 -4 -2 -4 -4v-25c0 -10 -1.33301 -17.667 -4 -23c2.66699 -16 4 -35.333 4 -58v-52c0 -6 -0.666992 -13.667 -2 -23c1.33301 -2.66699 2 -6.33398 2 -11.001c0 -4 -0.666992 -6 -2 -6l2 -25v-94c0 -2.66699 -1.33301 -9.33398 -4 -20.001l2 -21
c-3.33301 -0.666992 -7.33301 -7 -12 -19l-11 2c0 -4 -9 -6 -27 -6h-25c-9.33301 0 -14 3.33301 -14 10c-8.66699 7.33301 -13 18 -13 32v74c0 3.33301 -0.666992 6.33301 -2 9c1.33301 2 2 4.66699 2 8c0 13.333 -0.666992 26.666 -2 39.999c1.33301 13.333 2 26.333 2 39
l-2 19c0 1.33301 0.666992 3.33301 2 6c-1.33301 15.333 -2 28.666 -2 39.999v50c0 5.33301 0.666992 12.666 2 21.999c-1.33301 2.66699 -2 5 -2 7c0 2.66699 0.666992 4 2 4l-2 25v25c5.33301 36.667 8 56 8 58c-2 0 -4 2 -6 6v40c0 11.333 -1 21.333 -3 30l3 215
c0 3.33301 -0.666992 6.33301 -2 9c0 13.333 18.667 20 56 20h25zM251.998 166.004l-1 -1l-1 -3v-1h3l1 2l-1 1z" />
    <glyph glyph-name="L" unicode="L" horiz-adv-x="334" 
d="M54 722l-2 38.0039c0 5.33301 -1.33301 8 -4 8c1.33301 11.333 9 17 23 17h23l35 -7c1.33301 2 4.33301 4.33301 9 7c8 -2.66699 12 -8.33398 12 -17.001l-6 -8c5.33301 0 8 -5.66699 8 -17c0 -95.333 -0.666992 -225.333 -2 -390c1.33301 -36.667 2 -67.334 2 -92.001
c0 -1.33301 -2 -6.66602 -6 -15.999c2.66699 -0.666992 4 -2.33398 4 -5.00098v-89c0 -12 -0.666992 -30.667 -2 -56l4 -2c5.33301 0 38 0.666992 98 2l29 -2c16.667 1.33301 25 2.66602 25 3.99902c10 0 15 -9 15 -27v-48c-1.33301 -15.333 -7 -23 -17 -23
c-12.667 1.33301 -20.334 2 -23.001 2c-1.33301 0 -3.33301 -0.666992 -6 -2c-1.33301 0 -3.33301 0.666992 -6 2c-14.667 -1.33301 -26 -2 -34 -2h-2c-2 0 -29.667 0.666992 -83 2c-23.333 -2.66699 -36.666 -4 -39.999 -4h-31c-19.333 0 -29 7.66699 -29 23v58l2 11h2v10
c-2.66699 10.667 -4.66699 21.667 -6 33c1.33301 19.333 2 38 2 56c0 7.33301 -1.33301 15.666 -4 24.999c2.66699 76.667 4 151.667 4 225v225c0 1.33301 -0.666992 2 -2 2l2 4v29c0 4 1.33301 8 4 12l-2 11c0.666992 0 2 0.333008 4 1zM137 269.004h-4l-3 -1l-3 -3v-4h7
l3 4v4z" />
    <glyph glyph-name="M" unicode="M" horiz-adv-x="573" 
d="M73 781l80.0039 0.000976562c19.333 0 30.666 -12 33.999 -36l100 -493c0 -5.33301 1.66699 -8 5 -8c4 0 12.333 46 25 138c5.33301 46.667 11.666 85.334 18.999 116.001h-2c12.667 65.333 21 117 25 155c2 5.33301 4 11.666 6 18.999v4c8.66699 68.667 17 103 25 103
l11 2h88c20.667 0 31 -10.333 31 -31v-116c0 -4 -1.33301 -8 -4 -12l2 -11c-1.33301 -2.66699 -2 -4.66699 -2 -6h-4v-17c5.33301 0 8 -7.66699 8 -23c0 -10.667 -0.666992 -35.334 -2 -74.001c1.33301 -48 3.66602 -90.667 6.99902 -128l-2 -10
c1.33301 -9.33301 2 -18.333 2 -27v-23c0 -3.33301 0.666992 -6.33301 2 -9l-2 -4c1.33301 -104.667 2 -159.334 2 -164.001c0 -18.667 0.666992 -53 2 -103c0 -16.667 -11.333 -25 -34 -25h-42c-16.667 0 -25 10.667 -25 32v54c0 4.66699 2 9.66699 6 15h-2
c0 4 2.33301 6 7 6v4c-7.33301 0 -11 2.33301 -11 7v17c0 7.33301 0.666992 17 2 29c0 1.33301 -0.666992 2 -2 2l2 21v71c0 3.33301 0.666992 6.33301 2 9c-2.66699 4.66699 -4 10.334 -4 17.001c0 59.333 -2 128.333 -6 207c0 19.333 2.66699 32 8 38
c-2.66699 0 -4.66699 4.33301 -6 13h-2c-4.66699 0 -13 -46.333 -25 -139l-55 -315c-2 0 -7 -7.66699 -15 -23c3.33301 0 5 -1.33301 5 -4v-2c-3.33301 -10 -5 -15.667 -5 -17s0.666992 -3.33301 2 -6c0 -25.333 -9.66699 -38 -29 -38h-21c-20.667 0 -31 19 -31 57
c-2 0 -4.33301 2 -7 6l2 15l-58 315l10 -3c0 2 0.666992 4.33301 2 7l-4 2l-10 -2l-28 122l2 4l-4 14h2c-2 6 -4 9 -6 9h-2c0 -2.66699 -0.666992 -4 -2 -4l2 -15v-13c0 -59.333 1.33301 -129.333 4 -210c-2.66699 -78.667 -4 -147.667 -4 -207v-82
c-3.33301 -6 -9.66602 -11 -18.999 -15c-4.66699 2.66699 -8.33398 4 -11.001 4c-3.33301 -2.66699 -13 -4.66699 -29 -6c-26.667 0 -40 8.33301 -40 25v15c0 10 0.666992 15.667 2 17l-2 14c1.33301 94 2 162 2 204c0 22 2.33301 37.333 7 46c-3.33301 0 -5 1.33301 -5 4
c-2.66699 98.667 -5.33398 247.667 -8.00098 447c0 10 9.66699 15 29 15zM278.004 120.001l-1 -3l2 -4l2 -1l3 2l2 2v3l-4 2z" />
    <glyph glyph-name="N" unicode="N" horiz-adv-x="447" 
d="M323 779l55 0.00195312c14 0 21 -17.667 21 -53v-39c0 -11.333 -0.666992 -20.666 -2 -27.999l2 -19c-1.33301 -82 -3 -129.333 -5 -142c3.33301 -14 5 -33 5 -57v-42c0 -10 -0.666992 -17.667 -2 -23c1.33301 -9.33301 2 -18.333 2 -27v-25
c0 -32.667 0.666992 -79 2 -139c1.33301 -2.66699 2 -4.66699 2 -6l-2 -23v-131c0 -16.667 -14 -25 -42 -25c-49.333 0 -74 7 -74 21c0 6 -7.66699 37 -23 93l2 4c-8 20 -17 50.667 -27 92l-2 15c4 1.33301 6 5.33301 6 12c-10 0 -18.333 23.333 -25 70
c-11.333 39.333 -31 121 -59 245c-2 0 -4.66699 8.33301 -8 25h-2c-2.66699 -18.667 -4 -29.667 -4 -33v-4c2.66699 -145.333 4 -226 4 -242v-186c0 -6.66699 -1.33301 -12.334 -4 -17.001c3.33301 0 5.33301 -6.33301 6 -19l-4 -2c4 -14.667 6 -24 6 -28v-21
c0 -20.667 -8.33301 -31 -25 -31c0 2 -2 4 -6 6c0 -2 -2.33301 -4 -7 -6h-38c-15.333 0 -23 10.333 -23 31v21c0 3.33301 -0.666992 6.33301 -2 9c1.33301 2.66699 2 4.66699 2 6c0 2 -0.666992 9 -2 21c0 1.33301 0.666992 5.66602 2 12.999l-2 10
c2.66699 4.66699 4 9 4 13c-4 1.33301 -6 5.33301 -6 12c0 8 0.666992 14.333 2 19c0 4.66699 -0.666992 7 -2 7c1.33301 20.667 2 36 2 46v63c0 11.333 -0.666992 24.666 -2 39.999l2 4c-2.66699 23.333 -4 59 -4 107v31c0 9.33301 0.666992 20 2 32
c-2.66699 16 -4 45.333 -4 88v84c0 6.66699 0.666992 13.667 2 21c-1.33301 5.33301 -2 11.666 -2 18.999v23c0 7.33301 0.666992 17 2 29c-1.33301 2.66699 -2 6.33398 -2 11.001c0 15.333 15.333 23 46 23h72c19.333 0 29 -14.667 29 -44
c16.667 -72.667 27.667 -116.667 33 -132l-2 -5v-8c11.333 -31.333 36 -130 74 -296c0 -5.33301 1.33301 -8 4 -8h2c0 13.333 0.666992 20.333 2 21c-1.33301 11.333 -2 21 -2 29v50c0.666992 10 2 15 4 15c-2.66699 7.33301 -4 20 -4 38v31c0 22.667 -1.33301 48.667 -4 78
c1.33301 53.333 2 101.666 2 144.999c0 1.33301 -0.666992 3.33301 -2 6c1.33301 2.66699 2 5.33398 2 8.00098v55c0 12.667 7.66699 19 23 19zM90 171.002l2 1v3l-2 1h-3v-2z" />
    <glyph glyph-name="O" unicode="O" horiz-adv-x="403" 
d="M227 687c-1.33301 -2.66699 -2.66602 -4.33203 -3.99902 -4.99902l-11 2h-21c-30 -1.33301 -45 -14 -45 -38c-3.33301 -24 -7.33301 -36 -12 -36h-3v-4c7.33301 0 11.666 -19.667 12.999 -59c2.66699 0 4 -5 4 -15v-2c0 -14.667 -2.66699 -22 -8 -22h-2v-4
c6.66699 -6 10 -37 10 -93c0 -1.33301 -0.666992 -2 -2 -2l2 -4v-17c0 -18.667 -1.33301 -31.667 -4 -39c1.33301 -14 2 -25.333 2 -34v-21c0 -24.667 -5.66699 -45.667 -17 -63l5 -7h8c0.666992 -24.667 2 -44.334 4 -59.001c-1.33301 -2.66699 -2 -5.66699 -2 -9
c8 -43.333 23.667 -65 47 -65h21c28 6.66699 42 17.334 42 32.001c0 3.33301 2.33301 7.33301 7 12c0 4.66699 -0.666992 7 -2 7l2 10v68l12 15v2h-2l-10 -2c-1.33301 2.66699 -2 4.66699 -2 6c0 9.33301 -1 32.666 -3 69.999l3 4c-2 2.66699 -3 5.66699 -3 9v8l5 15
c-1.33301 4.66699 -3 7 -5 7c2 60.667 4.33301 103.667 7 129c-2.66699 0 -4 1.33301 -4 4v72l6 9c-6 6 -9 13 -9 21v32c0 20 -9.66699 42 -29 66zM225 767.002l4.00098 6.00098v5c29.333 0 61 -15.667 95 -47c3.33301 -4.66699 5 -8.33398 5 -11.001l10 -17h2
c8.66699 -20.667 13 -36 13 -46c-1.33301 0 -2 -0.666992 -2 -2c6 0 9.33301 -17.667 10 -53l-2 -15c3.33301 -4.66699 5 -9 5 -13v-6c0 -23.333 0.666992 -40.333 2 -51c-1.33301 -11.333 -2 -28.333 -2 -51v-4c0 -1.33301 0.666992 -2 2 -2l-2 -5v-23
c0 -6.66699 -1 -13.667 -3 -21c2 -5.33301 3 -11 3 -17l-3 -13c2 -7.33301 3 -14.333 3 -21c-2 -12.667 -3 -19.667 -3 -21h3c-2 -2.66699 -3 -5 -3 -7l-2 -12l-8 -17v-2c6.66699 -0.666992 10 -3 10 -7c3.33301 -55.333 5 -101.333 5 -138
c0 -87.333 -41 -141.666 -123 -162.999c-6 0 -11.667 -0.666992 -17 -2c-1.33301 0 -2 0.666992 -2 2c-13.333 -1.33301 -22 -2.66602 -26 -3.99902c-22.667 3.33301 -34 7.66602 -34 12.999l-15 -2c-35.333 12 -60 29.667 -74 53c-24 28.667 -36 80.667 -36 156l4 32l-2 11
v19c0 1.33301 0.666992 2 2 2l-2 4v81c0 8 -0.666992 18 -2 30l7 10c0 5.33301 -2.33301 18 -7 38v26l4 6l-4 15c-2.66699 70.667 -4 113.667 -4 129c0.666992 18.667 2.66699 28 6 28l-4 10c0 22 15 53.333 45 94c22.667 21.333 42.334 32 59.001 32
c17.333 5.33301 33.666 8.66602 48.999 9.99902c9.33301 0 20.666 -6.33301 33.999 -19zM293.001 306.003h-2l-1 -1l-1 -3l-1 -1l2 1l3 1l3 3l1 -1h1l1 -1v1l1 1v2h-4z" />
    <glyph glyph-name="P" unicode="P" horiz-adv-x="394" 
d="M63 776c35.333 -1.33301 61 -1.99805 77 -1.99805h52c85.333 0 139.333 -27.667 162 -83c12.667 -24 19 -65 19 -123v-17c0 -118.667 -30.667 -190.667 -92 -216c-26.667 -8.66699 -47.334 -13.667 -62.001 -15c-12 1.33301 -21.667 2 -29 2h-38c-2.66699 0 -4 -2 -4 -6
c0 -13.333 0.666992 -20.333 2 -21c-1.33301 -14.667 -2 -27.667 -2 -39v-65c-4 -4 -6 -7.33301 -6 -10c4.66699 -14 7.33398 -21 8.00098 -21c0 -1.33301 -0.666992 -2 -2 -2c1.33301 -30 2 -52 2 -66v-34c0 -2.66699 -1.33301 -4 -4 -4c0 2.66699 -3.33301 4 -10 4
c8 -8.66699 12 -17 12 -25c-2 -6.66699 -5.33301 -10 -10 -10v-4l6 -11c0 -6.66699 -6.33301 -10 -19 -10h-58c-16.667 0 -25 7 -25 21c0 4 0.666992 6 2 6c-1.33301 14 -2 24.333 -2 31v46c0 41.333 0.666992 95.333 2 162l2 11c-1.33301 5.33301 -2 10 -2 14
c0 7.33301 0.666992 17.666 2 30.999c-1.33301 12 -2 22 -2 30l2 12c0 1.33301 -0.666992 7 -2 17c1.33301 42.667 2 70.334 2 83.001c0 3.33301 -0.666992 13.666 -2 30.999l2 8c0 4.66699 -0.666992 9.66699 -2 15c4 165.333 6 248.666 6 249.999
c8.66699 6 13 9.33301 13 10zM154 676.002l-4 -184.999c1.33301 -2.66699 2 -4.66699 2 -6l-4 -9l4 -8c0 -4.66699 -1.33301 -19.334 -4 -44.001l10 -2h3c12.667 0 24.334 -0.666992 35.001 -2c42.667 4.66699 64 20 64 46c4.66699 8 7 23.333 7 46v89
c-4.66699 48.667 -21.334 73 -50.001 73c-24.667 0 -40 2 -46 6c-4 -2.66699 -9.66699 -4 -17 -4zM80 59.0029l4 -3l4 2l1 5l-1 5l-4 -2l-2 -2z" />
    <glyph glyph-name="Q" unicode="Q" horiz-adv-x="427" 
d="M214 794c75.333 0 126 -37.334 152 -112.001c5.33301 -22 8 -38.667 8 -50c-0.666992 -172 -2.66699 -258 -6 -258c1.33301 -9.33301 2 -17 2 -23v-54c0 -3.33301 0.666992 -6 2 -8c-1.33301 -2.66699 -2 -5 -2 -7c0 -18 0.666992 -49 2 -93
c-1.33301 -25.333 -2 -42 -2 -50c6.66699 -36 22 -54 46 -54c7.33301 -6.66699 11.333 -11.667 12 -15c-1.33301 -24.667 -2 -44.667 -2 -60v-4c0 -14 -6.33301 -21 -19 -21c-23.333 1.33301 -54.333 13.666 -93 36.999h-2c-30.667 -20.667 -66 -31 -106 -31
c-90 0 -145.667 43 -167 129c-2.66699 9.33301 -4.66699 24 -6 44c2.66699 104 4 203 4 297c0 3.33301 0.666992 11 2 23c-1.33301 2.66699 -2 6.33398 -2 11.001c1.33301 18.667 2 30.334 2 35.001c0 4 -0.666992 9 -2 15c0 105.333 12 168.333 36 189c28 40 75 60 141 60z
M145 637.999c-1.33301 -120.667 -1.99902 -210.666 -1.99902 -269.999c0 -11.333 -0.666992 -20.333 -2 -27c1.33301 -10.667 2 -22.667 2 -36v-158c4 -38.667 19.333 -58 46 -58h25c21.333 0 36.666 14 45.999 42v4c1.33301 123.333 3.33301 192.666 6 207.999
c0 1.33301 -0.666992 2 -2 2l2 10c0 13.333 -0.666992 28 -2 44c1.33301 40.667 2 71 2 91c0 15.333 -0.666992 29.333 -2 42c1.33301 15.333 2 35.333 2 60v40c0 36.667 -16.667 58 -50 64c-41.333 -2.66699 -62 -13 -62 -31c-3.33301 -4 -6.33301 -13 -9 -27zM342.001 285
l5 6l1 5h-4l-2 -4v-7zM323.001 316l-2 -1l3 -5l2 2h-2l1 4h-2z" />
    <glyph glyph-name="R" unicode="R" horiz-adv-x="402" 
d="M69 777h151.999c32.667 0 63.334 -12 92.001 -36c20 -14 35.333 -42.333 46 -85v-6l-2 -4c2.66699 0 5.66699 -12 9 -36c-2 -2.66699 -3 -5 -3 -7l3 -21c-2.66699 0 -5.66699 -2.66699 -9 -8c6 0 9 -8.66699 9 -26v-19l-3 -12c2 -2.66699 3 -6.33398 3 -11.001
c-3.33301 -0.666992 -5 -2 -5 -4l5 -11c-10.667 -60 -25.667 -98 -45 -114l-6 4v-4l2 -5c0 -4 -14.333 -16 -43 -36v-2c0 -2.66699 3.66699 -14 11 -34v-12c2.66699 -2 4.66699 -3 6 -3v-2l-2 -10c7.33301 0 26.666 -44 57.999 -132c-2 -2.66699 -3 -4.66699 -3 -6
c6.66699 0 11 -8.66699 13 -26c-1.33301 -2 -2 -4.66699 -2 -8c7.33301 -3.33301 19.333 -28.666 36 -75.999c-2.66699 -14.667 -9.66699 -22 -21 -22h-15c-6 0 -13.667 -0.666992 -23 -2l-5 2c-9.33301 -1.33301 -17 -2 -23 -2h-13c-12.667 5.33301 -19 14.666 -19 27.999
v13c-6.66699 0 -11.667 10.333 -15 31c-6.66699 12 -17 43.333 -31 94c1.33301 2.66699 2 4.66699 2 6c-4 0 -7.66699 10 -11 30c-4 9.33301 -7.33301 20 -10 32c-14.667 30 -22 51.667 -22 65c-4.66699 0 -8.66699 10 -12 30v4h-5c0 -5.33301 -1.33301 -8 -4 -8h-10v-49
c0 -8.66699 0.666992 -19.334 2 -32.001c-3.33301 -18 -5 -29.333 -5 -34l3 -12c-2 0 -3 -1 -3 -3c3.33301 -1.33301 5 -14.666 5 -39.999v-68c0 -4.66699 -3.66699 -13.667 -11 -27c6 -2 9 -4.33301 9 -7v-25l-5 -6c0 -7.33301 1.66699 -11 5 -11
c0 -6 -4.33301 -11 -13 -15c-14 1.33301 -24.667 2 -32 2c-9.33301 -2.66699 -15.666 -4 -18.999 -4h-17c-16.667 0 -25 7.66699 -25 23v38c0 71.333 2 112.333 6 123c-2.66699 14 -4 24.667 -4 32c2.66699 4.66699 4 9 4 13v4c0 4 -1.33301 8.33301 -4 13l2 8
c-4.66699 20 -7 49 -7 87l3 15c-2 5.33301 -3 12.333 -3 21c3.33301 4.66699 5 8.33398 5 11.001l-2 4v47l4 6l-4 9c-1.33301 37.333 -2 68.333 -2 93v47c0 3.33301 1.33301 7.33301 4 12c-2.66699 4.66699 -4 9 -4 13v98l11 -3l2 5c-8 2.66699 -13 7.66699 -15 15l2 4v8
c0 1.33301 -0.666992 2 -2 2c0 22.667 8.33301 34 25 34zM178.999 678h-34c-1.33301 -26.667 -2 -46 -2 -58v-38c0 -3.33301 -0.666992 -6 -2 -8c4 -16 6 -28 6 -36c0 -6 -0.666992 -11.667 -2 -17c2.66699 -30.667 4 -52.667 4 -66c0 -7.33301 3.66699 -18 11 -32
c40.667 2 61 5 61 9h7v-7h2l4 2l-4 9l17 13h4v-2l2 17c2.66699 4 4 8 4 12c0 3.33301 -0.666992 6.33301 -2 9c1.33301 3.33301 3 10.333 5 21l-3 15c2 14 3 25.333 3 34h-3l3 4c0 70.667 -13 109.667 -39 117c-10 4 -19.667 6 -29 6c-4.66699 -2.66699 -9 -4 -13 -4z" />
    <glyph glyph-name="S" unicode="S" horiz-adv-x="391" 
d="M184 787h22.998c63.333 0 109 -29.333 137 -88c8.66699 -17.333 13 -51.333 13 -102c-2.66699 -12 -9 -18 -19 -18c-8 1.33301 -14.333 4 -19 8c0 -2 -2 -4 -6 -6c-11.333 0 -26 -0.666992 -44 -2c-8.66699 0 -14 6 -16 18v40c0 25.333 -14 42.666 -42 51.999h-27
c-28.667 0 -46 -23 -52 -69c6.66699 -37.333 18.334 -67.666 35.001 -90.999c0 -3.33301 39 -62.333 117 -177c46 -82 69 -144.333 69 -187c-5.33301 -66 -14.333 -99.333 -27 -100c-4 0 -6 -2 -6 -6l-15 2v-7h6v-14c-13.333 -23.333 -26 -35 -38 -35l-4 2
c0 -8 -20.667 -13.667 -62 -17c-118 0 -177 67.333 -177 202v4c2.66699 14 9.66699 21 21 21h17c4.66699 0 10.667 0.666992 18 2c2.66699 -1.33301 4.66699 -2 6 -2c12.667 1.33301 20.334 2 23.001 2c18 0 27 -10.333 27 -31v-27c0 -47.333 21 -71 63 -71
c34.667 0 52 19.333 52 58v15c0 39.333 -52 132 -156 278c-40.667 75.333 -61 134.333 -61 177v11c0 27.333 1.66699 42.333 5 45s5 5.66699 5 9c0 20 16 45 48 75c22 19.333 50.667 29 86 29zM334.998 206l-1 2l-4 -1l-4 -4h5l5 2zM305.998 201h-3l-2 -1v-2l2 -1l2 1l1 1v2
z" />
    <glyph glyph-name="T" unicode="T" horiz-adv-x="360" 
d="M255 782l69 0.00585938c16 0 24 -7 24 -21l-2 -14c0 -1.33301 0.666992 -2 2 -2l-2 -15v-22c0 -1.33301 0.666992 -2 2 -2c-3.33301 -15.333 -10.666 -23 -21.999 -23h-87c-3.33301 0 -5 -1.33301 -5 -4v-29c0 -8.66699 -4 -13 -12 -13v-4l10 -8v-93
c0 -1.33301 -0.666992 -2 -2 -2l2 -4v-37c0 -1.33301 0.666992 -2 2 -2c0 -1.33301 -0.666992 -2 -2 -2c1.33301 -17.333 2 -30.333 2 -39c0 -6.66699 -0.666992 -13.667 -2 -21c1.33301 -6.66699 2 -15 2 -25v-18l-2 -4v-7l2 -4v-32l-4 -6l4 -7v-4
c0 -2.66699 -1.33301 -4 -4 -4c-2.66699 1.33301 -4.66699 2 -6 2v-4c6 0 10 -1.33301 12 -4l-2 -10v-17c0 -1.33301 -0.666992 -2 -2 -2l4 -9c-0.666992 -17.333 -3.33398 -27.666 -8.00098 -30.999c2.66699 0 5.33398 -7.33301 8.00098 -22v-27
c-2.66699 -9.33301 -4 -14.666 -4 -15.999c2.66699 -4.66699 4 -9 4 -13v-8l-6 -8c6 -10 9 -17.667 9 -23c0 -7.33301 -1.66699 -11 -5 -11c3.33301 -8.66699 5 -19.334 5 -32.001c0 -4 -1.66699 -9.33301 -5 -16c3.33301 -6 5 -13.667 5 -23v-19l-3 -15h-2
c-2.66699 0 -5.33398 0.666992 -8.00098 2l-8 -4c-8.66699 1.33301 -14.667 2 -18 2c-4 0 -9.66699 -2.66699 -17 -8h-12c-4.66699 0 -11 -0.666992 -19 -2c-7.33301 2.66699 -13.333 6 -18 10c-2 28 -3 49 -3 63v31c0 7.33301 3.66699 11 11 11v5
c-7.33301 5.33301 -11 10.666 -11 15.999v4c0 1.33301 1 2 3 2l-3 5v4l5 6l-5 6l3 21l-5 25c0 1.33301 0.666992 3.33301 2 6c-1.33301 10 -2 18 -2 24v17c0 9.33301 1.66699 15.333 5 18c-2 3.33301 -3 5.66602 -3 6.99902c0 15.333 -1.33301 31.333 -4 48
c1.33301 6.66699 2 12 2 16v6c4.66699 0 7 2 7 6v2l-5 6l3 10l2 4c-6 2.66699 -9 5 -9 7v96c0 1.33301 0.666992 2 2 2c-1.33301 3.33301 -2 5.66602 -2 6.99902c0 6 1.33301 18.333 4 37c-2.66699 5.33301 -4 11.666 -4 18.999c0 23.333 2.33301 40.666 7 51.999
c-3.33301 15.333 -5 31.666 -5 48.999v35h-44c-7.33301 0 -11 1.33301 -11 4c-4.66699 -2.66699 -8.66699 -4 -12 -4h-31c-11.333 0 -17 5 -17 15c0 0.666992 0.666992 10 2 28h-2c1.33301 1.33301 2.66602 10.333 3.99902 27c-1.33301 4 -2.66602 6 -3.99902 6
c0 9.33301 7.66699 15.666 23 18.999l101 6c1.33301 0 2 -0.666992 2 -2c36.667 2.66699 75 4 115 4z" />
    <glyph glyph-name="U" unicode="U" horiz-adv-x="414" 
d="M350 782c12.667 0 19.001 -19.668 19.001 -59.001c0 -2.66699 -1 -6 -3 -10h3v-13c0 -1.33301 0.666992 -2 2 -2c-1.33301 -2.66699 -2 -4.66699 -2 -6l-3 -6c3.33301 -4.66699 5 -8.33398 5 -11.001c0 -4 -0.666992 -7.33301 -2 -10c0 -6 0.666992 -10 2 -12
c-1.33301 -43.333 -2 -77.333 -2 -102v-84c0 -1.33301 0.666992 -2 2 -2l-2 -4c0 -6.66699 0.666992 -17 2 -31c0 -4.66699 -0.666992 -8 -2 -10c1.33301 -44 2.66602 -67 3.99902 -69c-1.33301 -9.33301 -2 -17 -2 -23v-89c0 -28 0.666992 -62.667 2 -104
c0 -28.667 -12 -60 -36 -94c-32 -36 -75 -54 -129 -54c-56.667 0 -102.334 23.667 -137.001 71c-15.333 24.667 -24.333 55 -27 91c1.33301 116 2 197.333 2 244c0 23.333 -0.666992 65.333 -2 126c0 2 0.666992 4.33301 2 7c-1.33301 14 -2 25 -2 33v133
c0 1.33301 -0.666992 2 -2 2l2 4v17c0 1.33301 -0.666992 2 -2 2l2 4c-1.33301 14 -2 24.333 -2 31c0 16.667 7.66699 25 23 25h62c15.333 0 23 -8.33301 23 -25v-2c0 -62 0.666992 -109.667 2 -143c-1.33301 -30 -2 -74.333 -2 -133h2
c-1.33301 -10 -2.66602 -15 -3.99902 -15l2 -14c1.33301 -92.667 2 -144 2 -154c-2.66699 -9.33301 -4 -15 -4 -17c0 -115.333 7 -173 21 -173c6.66699 -9.33301 19 -14 37 -14h7c24 0 40.333 11.667 49 35l5 27c-1.33301 58 -2 106 -2 144v21c0 10.667 -1 23.667 -3 39l3 4
c-2 18 -3 32.667 -3 44v8c0 16.667 1.66699 47.334 5 92.001c1.33301 140.667 2 227.334 2 260.001c0 12 12.333 18 37 18c8 0 22.667 1 44 3zM361.001 241.999v7l-4 -4v-3h4zM355.001 261.999v-1h-1v-1l1 -2l2 4h-2z" />
    <glyph glyph-name="V" unicode="V" 
d="M389 769c0 -4.66699 -2.67188 -26.6641 -8.00488 -65.9971c1.33301 -2.66699 2 -5 2 -7c-1.33301 -4 -2.66602 -6 -3.99902 -6l2 -11v-2c-6 -56 -11.667 -91.667 -17 -107v-27c0 -5.33301 -4.33301 -11.666 -13 -18.999c4 -4.66699 6 -8.33398 6 -11.001
c-10 -68.667 -16.333 -122.334 -19 -161.001c-3.33301 -14 -8.33301 -24 -15 -30c-8 -102 -15.667 -160.333 -23 -175l2 -11c0 -30 -5.33301 -45 -16 -45v-2c2.66699 0 6 -1.33301 10 -4c-5.33301 -28.667 -8.66602 -43.667 -9.99902 -45v-7l-4 -6v-4c0 -2 0.666992 -3 2 -3
c-3.33301 -9.33301 -6 -14 -8 -14h-15c0 -4.66699 -15 -7.66699 -45 -9l-12 6c0 -0.666992 -2.33301 -2.66699 -7 -6l-4 2c-1.33301 0 -7.33301 -1.33301 -18 -4h-4c-7.33301 0 -19.333 0.666992 -36 2c-7.33301 6.66699 -13.666 29 -18.999 67l-4 42v15
c0 -1.33301 -1 -2 -3 -2c0 1.33301 -0.666992 2 -2 2l2 11c-4 14.667 -7.33301 33.334 -10 56.001l4 2c4.66699 -2.66699 8.33398 -4 11.001 -4l2 4c-14 2 -21 10.333 -21 25c-7.33301 38 -12.333 71 -15 99l2 4c-4 0 -10 37 -18 111l-23 154c1.33301 2.66699 2 4.66699 2 6
c-3.33301 3.33301 -7 18.666 -11 45.999v19c-5.33301 20 -8 33.333 -8 40l2 11c-1.33301 0 -2 0.666992 -2 2l2 13h-2c-3.33301 0 -7 12.333 -11 37c0 15.333 11.333 23 34 23h15c2.66699 0 4.83398 0.333008 6.50098 1s10.5 1 26.5 1c15.333 0 23 -7 23 -21l-2 -9
c1.33301 -4 2.66602 -6 3.99902 -6l-2 -4v-2c4 -5.33301 6 -9.66602 6 -12.999l-2 -9c6 -14.667 9 -29.667 9 -45l-3 -8c4.66699 0 8.33398 -20.333 11.001 -61l-4 -2c-2.66699 1.33301 -5 2 -7 2v-4c11.333 0 18.666 -17.667 21.999 -53
c24.667 -192 39.667 -303.333 45 -334c-0.666992 -8.66699 -4 -16.334 -10 -23.001v-2c6.66699 0 10 -4.33301 10 -13c1.33301 -26 4.33301 -39 9 -39c2.66699 2 8.33398 32 17.001 90c4 1.33301 6 5.66602 6 12.999l-4 6c15.333 100.667 23 158.667 23 174v6l6 9l-4 19
c0 14.667 5.66699 31 17 49l-2 5v25h-2c0 1.33301 -0.666992 5.66602 -2 12.999h2c-1.33301 2.66699 -2 4.66699 -2 6c0 7.33301 2.66699 20 8 38v27c2.66699 44 7.66699 66 15 66v23h-2c0 1.33301 -0.666992 3.33301 -2 6c3.33301 47.333 12 71 26 71h13l34 -8
c-7.33301 3.33301 -11 6 -11 8h2c2 0 3 -0.666992 3 -2zM340.995 611.003v2l-5 3l-2 -1v-3l5 -2zM299.995 623.003l3 -1v4h-6z" />
    <glyph glyph-name="W" unicode="W" horiz-adv-x="586" 
d="M538 779l10.998 0.000976562c10.667 0 19 -4.66699 25 -14l-38 -354c-24.667 -195.333 -40 -310.333 -46 -345l-4 -2l2 -11c0 -36 -6.66699 -54 -20 -54h-109c-16.667 0 -25 10.333 -25 31c-12 108.667 -18.667 178.667 -20 210c2.66699 1.33301 4.66699 2 6 2v9
c-10 0 -15 22.667 -15 68l-10 121h-4c-10 -73.333 -17.667 -151 -23 -233l-21 -198c-4 -8 -13.667 -12 -29 -12h-35c-10 0 -18.333 0.666992 -25 2c-7.33301 -1.33301 -15.666 -2 -24.999 -2h-19c-10 0 -17.667 38 -23 114c-23.333 166.667 -44.666 346.334 -63.999 539.001
h2c-4 5.33301 -9.66699 40.666 -17 105.999c0 10 9 17 27 21c12.667 -0.666992 19 -2 19 -4v-4h4c6 5.33301 11.667 8 17 8h12c19.333 0 29 -18.667 29 -56c5.33301 -34 11.666 -98 18.999 -192h-2c4 0 12.333 -79 25 -237l16 -139h2c4.66699 0 15.334 100 32.001 300
c8 87.333 14.667 144.666 20 171.999l-2 11c7.33301 92.667 15 139 23 139l15 2h44c20.667 0 31 -10.333 31 -31l60 -593h4c16.667 149.333 37.667 354 63 614c0 8 22.667 12 68 12zM530.998 708.001l3 2l-3 1l2 2h-3l-7 -5l1 -3l2 -1z" />
    <glyph glyph-name="X" unicode="X" horiz-adv-x="410" 
d="M301 781c4.66699 -2.66699 8.66504 -4 11.998 -4c4.66699 2.66699 9 4 13 4h25c14 0 21 -7.66699 21 -23c-3.33301 -14 -34 -118 -92 -312c-4 -26 -9.66699 -39 -17 -39v-2c6 0 16.667 -29.333 32 -88l97 -303c0 -11.333 -24 -17 -72 -17h-19
c-9.33301 0 -21.333 33.333 -36 100l-58 204h-6c-12.667 -64.667 -39 -164 -79 -298c-5.33301 -4 -10.333 -6 -15 -6h-68c-11.333 0 -17.666 7 -18.999 21c54 175.333 92 304.333 114 387c-48 155.333 -83.333 273.666 -106 354.999c0 12.667 11.333 19 34 19h45
c17.333 0 28 -17.333 32 -52l62 -222h4c38.667 158.667 62.334 247.334 71.001 266.001c4.66699 4.66699 13 8 25 10zM288.998 232l1 -3l3 -1l-1 3zM294.998 230v-6l3 -5l2 -1l1 1l-1 5zM279.998 206v-3l1 -1h2l1 1v1l-1 2h-3z" />
    <glyph glyph-name="Y" unicode="Y" horiz-adv-x="390" 
d="M44 781h54.998c18 0 28.333 -16.333 31 -49c0 -7.33301 7 -39.333 21 -96c-2.66699 -0.666992 -4 -2.33398 -4 -5.00098c6.66699 -12 16.834 -52.667 30.501 -122s20.5 -105.666 20.5 -108.999h2c3.33301 3.33301 6 5 8 5v4c-4 0 -6 2 -6 6c0 5.33301 11.667 69 35 191
c20 94 32.667 149.333 38 166c5.33301 4 10.333 6 15 6h61c16.667 -1.33301 25 -8.33301 25 -21c-26.667 -104.667 -41.334 -167.667 -44.001 -189c1.33301 -2.66699 2 -4.66699 2 -6h-8v-4c-21.333 -102 -44.666 -194.333 -69.999 -277c-2.66699 -10 -4.66699 -20 -6 -30
l2 -21c0 -2.66699 -0.666992 -10.334 -2 -23.001l2 -8l-2 -13c0 -1.33301 0.666992 -3.33301 2 -6l-2 -9c1.33301 -18.667 2 -34.667 2 -48c0 -1.33301 0.666992 -2 2 -2c-1.33301 -4 -2.66602 -6 -3.99902 -6c2.66699 -16.667 4 -40 4 -70v-29
c0 -12.667 -7.66699 -19 -23 -19h-65c-15.333 0.666992 -23 7 -23 19c1.33301 12.667 2 20.334 2 23.001c0 8 -0.666992 15.667 -2 23c1.33301 14 2 24.667 2 32c-1.33301 35.333 -2 56.333 -2 63c0 2 3.33301 6 10 12l-6 9v16c0 1.33301 -1.33301 7 -4 17v23
c0 1.33301 1.33301 7 4 17c-3.33301 0 -6 5.66699 -8 17l2 8c-10 26 -50.667 186.333 -122 481c0 14.667 8.33301 22.667 25 24zM189.998 174v1l3 4l-5 -1l-2 -4h4zM198.998 171l1 3h-3v-3h2z" />
    <glyph glyph-name="Z" unicode="Z" horiz-adv-x="333" 
d="M56 774h2.00293c4.66699 0 7 -3 7 -9h2c0 6 1.33301 9 4 9h206c25.333 0 38 -7 38 -21v-39c0 -1.33301 0.666992 -2 2 -2l-2 -4v-4c0 -3.33301 0.666992 -6.33301 2 -9c-2.66699 -22.667 -9 -34 -19 -34v-6h8v-2c-10 -44.667 -17.667 -68.667 -23 -72v-6
c0 -2 0.666992 -3 2 -3c-25.333 -86 -43 -140.333 -53 -163c-2.66699 -0.666992 -4 -2 -4 -4v-2c0 -1.33301 0.666992 -2 2 -2c-20 -68 -32.667 -104 -38 -108l2 -5c-36.667 -122 -55 -184.667 -55 -188c18.667 -1.33301 32.667 -2 42 -2c1.33301 0 2 0.666992 2 2
c6 -1.33301 9 -3 9 -5l10 3h30c7.33301 0 13.666 -1 18.999 -3c7.33301 2 14.333 3 21 3h22c15.333 0 23 -8 23 -24v-17c0 -2.66699 -1.33301 -4 -4 -4l6 -23c-1.33301 -6 -4.33301 -14 -9 -24l-7 -3l-37 -1h-23c-18 0 -38.667 -0.666992 -62 -2
c-6.66699 1.33301 -16.334 2 -29.001 2l-7 2c-6 -2.66699 -17.333 -4 -34 -4h-36l-6 4h-11v7h-2c0 -6 -1.33301 -9 -4 -9h-13l2 4l-19 15c0 4.66699 0.666992 8.33398 2 11.001c-1.33301 12 -2 21.667 -2 29c1.33301 42.667 7.66602 64 18.999 64v2l-6 9
c5.33301 13.333 9.66602 22.333 12.999 27l-2 4c21.333 72.667 34 111 38 115h4v6h-4c0 4 6.66699 25 20 63s30 89.333 50 154c1.33301 0 3.33301 2.66699 6 8v2c0 1.33301 -0.666992 2 -2 2l47 157l-5 2c-6 0 -37 -0.666992 -93 -2l-8 -2c-21.333 0 -44.666 10 -69.999 30
c0 -1.33301 9.66699 -9.33301 29 -24v-2h-12c-16 1.33301 -24 7.66602 -24 18.999l2 13c-4 16 -6 29.333 -6 40c1.33301 0 2 0.666992 2 2h-2c0 16 12.667 24 38 24zM243.003 36h-4v-4h4v4zM220.003 95l-1 -2h5l-1 2h-2v2zM206.003 45l-1 -4l4 4h-3zM188.003 65h4l1 3l-3 1
l-3 -1z" />
    <glyph glyph-name="bracketleft" unicode="[" horiz-adv-x="273" 
d="M211 881c18.667 0 28 -7.66797 28 -23.001v-19c-1.33301 -12.667 -2 -23.334 -2 -32.001h-2l2 -4v-13c-5.33301 -7.33301 -13.333 -11 -24 -11h-31c-8 0 -19.333 -0.666992 -34 -2v-44c0 -24 0.5 -36.833 1.5 -38.5s1.83301 -17.834 2.5 -48.501
c-1.33301 -52.667 -3.33301 -79 -6 -79c0 -1.33301 2.66699 -5.33301 8 -12c-0.666992 -9.33301 -3.33398 -16.666 -8.00098 -21.999v-10c1.33301 0 2 0.666992 2 2c4 -1.33301 6 -2.66602 6 -3.99902v-34c0 -0.666992 -1.33301 -31 -4 -91l-4 -7c5.33301 -2 8 -7 8 -15v-23
l4 -6v-60l-2 -21c2.66699 -0.666992 4 -2 4 -4v-2c0 -6 -0.666992 -14 -2 -24c0 -1.33301 0.666992 -2 2 -2l-2 -15v-33l-4 -7v-13c5.33301 -42.667 8 -78.667 8 -108c-1.33301 -7.33301 -2 -13.666 -2 -18.999v-38l5 -6c20.667 1.33301 36 2 46 2h13
c21.333 0 32 -10.667 32 -32v-44c0 -3.33301 0.666992 -6.33301 2 -9c0 -8 -10.667 -13.667 -32 -17l-2 4l2 5l-6 4c-6.66699 -8.66699 -13 -13 -19 -13l-115 -2c-1.33301 0 -7 2 -17 6l2 15c-2 0 -4 2.33301 -6 7v14c0 3.33301 0.666992 6.33301 2 9
c-2.66699 5.33301 -4 11 -4 17s0.666992 11.667 2 17c-1.33301 9.33301 -2 18.333 -2 27v19c0 4 2 12.667 6 26c-2 0 -4 2 -6 6c0 3.33301 0.666992 11.333 2 24c0 4.66699 -0.666992 11 -2 19c2 33.333 3.33301 55 4 65c-1.33301 7.33301 -2 14.666 -2 21.999v42
c0 1.33301 0.666992 2 2 2c-1.33301 2.66699 -2 4.66699 -2 6l6 22v2c-6.66699 0 -10 16.333 -10 49c1.33301 2 2 4.66699 2 8c0 4 -0.666992 6 -2 6l2 26v87l-2 4c1.33301 0 2 0.666992 2 2l4 -2h4l5 2c0 2 -5 8.33301 -15 19v2c2.66699 20.667 4 31.334 4 32.001l-6 13
c0 12 -1.66699 52.333 -5 121c1.33301 5.33301 2 11 2 17c-2.66699 0 -4 1.33301 -4 4c0 6.66699 0.666992 13.667 2 21l-2 13c2.66699 0 4 1.33301 4 4v4l-4 7v74l-2 13c2 12 4 19.667 6 23v2l-6 8v30c0 1.33301 -0.666992 2 -2 2c0 14.667 5 24.667 15 30l13 -2l4 2
c60.667 1.33301 104.334 2 131.001 2zM93 167.999l-2 -2h4zM96 192.999l2 -1v5l-2 -1v-3z" />
    <glyph glyph-name="backslash" unicode="\" horiz-adv-x="377" 
d="M241 191c-6 0 -18.668 29 -38.001 87c-4 16 -10.333 30 -19 42c-34 90.667 -51 137.334 -51 140.001l2 11c-7.33301 0 -19.333 26.667 -36 80c-12 30.667 -19.667 49 -23 55l-9 22c-24 52 -41 98.333 -51 139c-2 0 -4 2.33301 -6 7v4c0 4 14 7 42 9c34 0 51 -8 51 -24
c35.333 -89.333 53 -135.333 53 -138c1.33301 0 5 -7 11 -21c21.333 -51.333 32 -81.666 32 -90.999h-2c21.333 -52.667 39 -99.334 53 -140.001c3.33301 0 10.333 -18.333 21 -55c5.33301 -6.66699 18.666 -42.334 39.999 -107.001h1
c2.66699 -4.66699 10.334 -26 23.001 -64v-6c5.33301 0 15.333 -29 30 -87c1.33301 -2 2 -5.33301 2 -10c6 -16.667 10 -30.667 12 -42c-10 -4.66699 -18 -7 -24 -7h-38c-17.333 0 -29.666 18.333 -36.999 55zM132.999 635l-1 -3l6 -2l1 4h-2l-2 1h-2zM92.999 661l-5 1l3 -5
h3z" />
    <glyph glyph-name="bracketright" unicode="]" horiz-adv-x="273" 
d="M43 884c15.333 -1.33301 28.667 -2.00293 40 -2.00293h2c3.33301 0 6.33301 -0.666992 9 -2c2.66699 0.666992 15.334 2 38.001 4c6 -4 17.333 -6.66699 34 -8v-3c9.33301 7.33301 16.333 11 21 11h4c17.333 0 26 -8.33301 26 -25c0 -2 -0.666992 -4.33301 -2 -7
c2.66699 -15.333 4 -28.666 4 -39.999c0 -8.66699 -1.33301 -22 -4 -40c1.33301 -12 2 -22 2 -30c0 -5.33301 -0.666992 -23 -2 -53h2l-2 -4c2.66699 -12.667 4 -22 4 -28c0 -8.66699 -2 -18.334 -6 -29.001c2.66699 -4.66699 4 -9 4 -13v-2
c0 -3.33301 -0.666992 -6.33301 -2 -9c0.666992 -5.33301 2 -8 4 -8l-2 -5v-4l2 -15c-2 -1.33301 -6.33301 -2 -13 -2v-2c0 -0.666992 4.33301 -5 13 -13v-95c0 -5.33301 0.666992 -11.666 2 -18.999c-1.33301 -2 -2 -6.33301 -2 -13h2c0 -1.33301 -0.666992 -2 -2 -2
c1.33301 -14 2 -24.667 2 -32v-157c0 -1.33301 0.666992 -2 2 -2l-2 -4v-17c0 -3.33301 0.666992 -6 2 -8l-6 -130v-106c0 -15.333 -3.66699 -23 -11 -23l2 -11c-1.33301 0 -2 -0.666992 -2 -2c1.33301 0 2 -0.666992 2 -2l5 2c4 -1.33301 6 -5.33301 6 -12
c0 -17.333 -11.333 -26 -34 -26h-144c-5.33301 0 -9 27.667 -11 83c0 8.66699 6.33301 14.334 19 17.001h34c4 0 10.333 -1.33301 19 -4c0 4 7.33301 6 22 6c0 21.333 0.666992 50.333 2 87l4 93l-2 9l2 8c-1.33301 5.33301 -2 10.333 -2 15h4l4 -2
c-5.33301 22 -8 35.333 -8 40c-2.66699 84.667 -6.33398 161 -11.001 229l7 104c-3.33301 14 -5 34.333 -5 61v106c0 2 2.33301 4.33301 7 7c-5.33301 6.66699 -9 16.334 -11 29.001c-7.33301 0 -13 2.33301 -17 7c-5.33301 -4.66699 -10.333 -7 -15 -7h-36
c-15.333 0 -23 10 -23 30v15c0 6 0.666992 13.667 2 23c-1.33301 2.66699 -2 5.66699 -2 9c0 12 6.33301 19.667 19 23zM195.001 -1.00293l-2 1v-5l2 1v3zM191.001 -33.0029l2 -1l-1 2h2l-2 2l-1 -1v-2z" />
    <glyph glyph-name="asciicircum" unicode="^" horiz-adv-x="387" 
d="M181 776h31.999c8.66699 -0.666992 13 -2.66699 13 -6c8 -7.33301 22 -40 42 -98v-2h-4l2 -10l4 2h2c0 -3.33301 3 -10.333 9 -21l-5 -9c6 -0.666992 12.333 -10.667 19 -30v-10l5 -6c6.66699 -13.333 10 -24 10 -32v-5c-4.66699 0 -9.66699 -2 -15 -6h-36
c-19.333 0 -32.666 22.667 -39.999 68c-4 5.33301 -12.333 30 -25 74h-2c-10.667 -30.667 -18.667 -48.334 -24 -53.001l2 -10c-5.33301 -19.333 -8 -29.333 -8 -30c-4.66699 -5.33301 -9.66699 -18.666 -15 -39.999c-8.66699 -7.33301 -18.667 -11 -30 -11
c-28 0 -42 3.66699 -42 11c22.667 74 48.667 146 78 216c6 5.33301 15.333 8 28 8z" />
    <glyph glyph-name="underscore" unicode="_" horiz-adv-x="320" 
d="M282 2h10.9971c16.667 0 25 -8.33301 25 -25c-2.66699 -6 -4 -10.333 -4 -13c2.66699 -0.666992 4 -2 4 -4v-39c0 -14 -10.667 -21 -32 -21h-59c0 4.66699 -1.33301 7 -4 7c0 -7.33301 -17.667 -11 -53 -11c-7.33301 0 -16.166 0.333008 -26.499 1
s-17.166 1.66699 -20.499 3c-13.333 -2.66699 -23.666 -4 -30.999 -4h-70c-20 0 -30 7 -30 21c1.33301 12.667 2.66602 19 3.99902 19c-2.66699 4.66699 -4 9 -4 13c0 31.333 5 47 15 47c5.33301 1.33301 11 2 17 2h76c30.667 1.33301 53.334 2 68.001 2h23l15 -4l9 4
c4.66699 1.33301 27 2 67 2zM296.997 -86v5h-2l-2 -6z" />
    <glyph glyph-name="grave" unicode="`" horiz-adv-x="399" 
d="M209 963c12.667 0 24.668 -15.665 36.001 -46.998c-2.66699 -0.666992 -4 -2 -4 -4v-2c10 0 22 -18.667 36 -56c0 -2.66699 -4.33301 -5.33398 -13 -8.00098l-13 2c-1.33301 0 -3.33301 -0.666992 -6 -2c-1.33301 0 -3.33301 0.666992 -6 2c-12 -1.33301 -22 -2 -30 -2
h-2c-16 0 -34.333 20.333 -55 61c-8.66699 7.33301 -16 18.666 -22 33.999c-2.66699 0 -5.33398 2.33301 -8.00098 7c0 8 6.33301 12 19 12h34c8 0 19.333 1 34 3zM192.001 951.002h-3v-2l2 -1z" />
    <glyph glyph-name="a" unicode="a" 
d="M147 778h115.997c20 0 30 -15.333 30 -46c10.667 -57.333 24.334 -160.666 41.001 -309.999c10 -62 28.667 -197 56 -405c0 -5.33301 -4 -11 -12 -17h-71c-17.333 0 -27.666 30 -30.999 90c1.33301 2 2 4.66699 2 8c-4 0 -9.66699 34 -17 102h-2
c-8.66699 0 -46 -0.666992 -112 -2c-12.667 -70 -21.667 -133.333 -27 -190c-8.66699 -6.66699 -13.667 -10 -15 -10c-29.333 1.33301 -51.333 2 -66 2c-10.667 0 -17.667 5.66699 -21 17c0 18 5 31 15 39c-6 7.33301 -9 12.333 -9 15c15.333 119.333 27.333 179 36 179h4
c-7.33301 7.33301 -11 12.666 -11 15.999c14.667 110 24.334 165 29.001 165l11 2v2c0 2.66699 -4.33301 4 -13 4c28 202.667 44.667 313 50 331c6 5.33301 11.667 8 17 8zM206.997 641c-8 -71.333 -17.667 -122.001 -29 -152.001h-2c0 -1.33301 2.66699 -5.66602 8 -12.999
c0 -6 -1.33301 -11.333 -4 -16l2 -4c-13.333 -90 -20 -142.667 -20 -158c1.33301 0 2 -1 2 -3c16 2 27.667 3 35 3h50c2.66699 0 4 1.33301 4 4c-16.667 110.667 -27.667 204 -33 280c-2 0 -5 19.667 -9 59h-4zM337.997 80.999l-1 -3l5 -3l2 2l-2 5zM345.997 89.999l1 2
l-4 3l-1 -2h2v-4z" />
    <glyph glyph-name="b" unicode="b" horiz-adv-x="404" 
d="M61 779c1.33301 0 1.99902 -0.666016 1.99902 -1.99902c3.33301 0 9 0.666992 17 2c19.333 -1.33301 36 -2 50 -2c1.33301 0 9.5 -0.666992 24.5 -2s23.167 -2 24.5 -2h4l8 6h27c10.667 0 31.667 -5 63 -15c29.333 -14 51 -39.667 65 -77c8 -22.667 12 -58.667 12 -108
v-14c0 -46.667 -8.33301 -79.334 -25 -98.001c0 -12 -14.333 -29.333 -43 -52c42.667 -30 64 -54 64 -72c11.333 -30 17 -64 17 -102v-12c0 -7.33301 -1.33301 -11 -4 -11c2.66699 -4.66699 4 -10 4 -16v-41c0 -39.333 -7.66699 -65.333 -23 -78l2 -10
c-32 -50 -80 -75 -144 -75h-25c-4 0 -8.66699 1.33301 -14 4l-10 -2c0 5.33301 -3 8 -9 8l7 2l-40 -6h6v-4l-10 -2h-33c-19.333 0 -29 5.66699 -29 17v4h4v2l-7 10c2 38.667 3 70.667 3 96v28c0 8 0.666992 19 2 33c-1.33301 2.66699 -2 6.66699 -2 12l2 8
c-3.33301 19.333 -5 38 -5 56l3 13c-2 7.33301 -3 14 -3 20v25c0 6 1.66699 11.667 5 17c-3.33301 4.66699 -5.66602 14.334 -6.99902 29.001c1.33301 82 2 144.667 2 188c-1.33301 10 -2 15.667 -2 17v47c0 8.66699 0.666992 17.667 2 27c-1.33301 6 -2 11.667 -2 17v90
c0 13.333 5.66699 21.666 17 24.999zM141.999 687.001v-4l4 -6v-4l-4 -6v-3c5.33301 0 8 -2.66699 8 -8c0 -8.66699 -0.666992 -13.667 -2 -15c1.33301 -15.333 2 -28.666 2 -39.999v-78c0 -1.33301 1 -2 3 -2c-2 -8 -5 -12 -9 -12v-5c4.66699 0 7.66699 -4.66699 9 -14
l-3 -4c1.33301 -19.333 3.66602 -29 6.99902 -29h28c34.667 0 58.334 13 71.001 39c3.33301 7.33301 5.33301 22.666 6 45.999c0 81.333 -5.66699 122 -17 122c0 2.66699 -11 9.66699 -33 21l-4 -2h-25c-6.66699 0 -14.667 -0.666992 -24 -2l-11 6h-6zM215.999 368.001
l0.000976562 -2l2 -10h-23c-4.66699 0 -8 0.666992 -10 2l-14 -2h-16c-3.33301 -0.666992 -5 -2 -5 -4l3 -127v-19c0 -14 0.666992 -30.333 2 -49l-2 -8c1.33301 -7.33301 2 -14.666 2 -21.999c0 -6 -0.666992 -13.667 -2 -23c1.33301 -2.66699 2 -4.66699 2 -6h63
c31.333 6 47 26.333 47 61c0.666992 0 2.66699 3.66699 6 11c0 1.33301 -1.33301 8.66602 -4 21.999c2.66699 5.33301 4 10 4 14c-2.66699 5.33301 -4.66699 8 -6 8c0 1.33301 0.666992 2 2 2c-1.33301 12 -2 21 -2 27c0 4.66699 0.666992 9.66699 2 15
c-4.66699 51.333 -10.334 77 -17.001 77c-4 1.33301 -9 8.33301 -15 21c-10 0 -15 4 -15 12h-4zM265 75.001l2 6l-5 5l-3 -2l1 -8zM239 65.001h1l1 -1h2v2l-4 1v-2z" />
    <glyph glyph-name="c" unicode="c" horiz-adv-x="400" 
d="M199 785h21.001c72 0 121.333 -38.333 148 -115c4 -22.667 6 -48.334 6 -77.001c-2 -14 -9 -21 -21 -21h-50c-6 0 -13.667 -0.666992 -23 -2c-8 0 -12.667 7.66699 -14 23v31c0 36.667 -16.667 57.667 -50 63h-19c-30.667 -6.66699 -46 -27.667 -46 -63v-16
c0 -7.33301 -1.33301 -11 -4 -11l2 -25v-50c0 -7.33301 -0.666992 -13.333 -2 -18c1.33301 -7.33301 2 -14.333 2 -21v-58c0 -14.667 -0.666992 -25 -2 -31c1.33301 -10.667 2 -22.667 2 -36v-73l-2 -25h2c0 -1.33301 -0.666992 -2 -2 -2
c1.33301 -18 2.66602 -27 3.99902 -27c-1.33301 -2 -2.66602 -8 -3.99902 -18l2 -15c0 -3.33301 -4 -7.33301 -12 -12v-3c0 -2.66699 1.33301 -4 4 -4h2l4 2l2 -4v-29c4.66699 -37.333 20.667 -56 48 -56h23c18.667 0 34 16.667 46 50c-1.33301 8 -3 12 -5 12l3 4v36
c0.666992 15.333 6.66699 23 18 23l25 -2h44c14 0 21 -9.66699 21 -29c-2.66699 -6 -4 -11 -4 -15c0 -6.66699 1.33301 -10 4 -10c0 -78.667 -34.667 -133 -104 -163c-22.667 -5.33301 -42.334 -8 -59.001 -8c-72 0 -121.667 28.333 -149 85c-10 22 -15 40 -15 54
c1.33301 2.66699 2 6.33398 2 11.001c-4 0 -6 11 -6 33v60c2.66699 3.33301 4 6.33301 4 9c-2.66699 12 -4 21 -4 27v27c0 4.66699 2 9.33398 6 14.001v7c0 1.33301 -0.666992 2 -2 2l4 8l-8 2v56c0 2.66699 2 4 6 4c0 4.66699 -2 9.66699 -6 15v102l2 12l-2 4
c1.33301 26 2 47.667 2 65v42c4 42.667 11 64 21 64h4v2l-2 13c0 23.333 29 46.666 87 69.999c18 4.66699 33.333 7 46 7zM301.001 61l-3 -3h-2l-1 -1l-4 1l-2 -3l3 -3l4 2h2l4 1l3 4v3zM227.001 749v-2l3 -2l2 2v4z" />
    <glyph glyph-name="d" unicode="d" horiz-adv-x="412" 
d="M152 779c2.66699 -1.33301 5.33203 -1.99805 7.99902 -1.99805h57c67.333 0 114 -30 140 -90c5.33301 -13.333 9.33301 -34 12 -62c-4 -4.66699 -6 -13 -6 -25c2 0 5 -1.33301 9 -4c1.33301 -64.667 2 -115 2 -151v-21c0 -7.33301 0.666992 -17 2 -29l-2 -4
c1.33301 -18 2 -32.667 2 -44v-41c0 -6 -0.666992 -13.667 -2 -23c1.33301 -2 2 -5.33301 2 -10s-3 -7 -9 -7v-6c3.33301 0 6.33301 -0.666992 9 -2l-2 -4l2 -19c0 -6.66699 -1.33301 -10 -4 -10c2.66699 -11.333 4 -25 4 -41l-2 -25h2
c-7.33301 -45.333 -17.666 -78.666 -30.999 -99.999c-25.333 -41.333 -79.333 -62 -162 -62h-6c-27.333 1.33301 -57 2 -89 2h-17c-15.333 0 -23 10.333 -23 31v36c0 10.667 -0.666992 25 -2 43c0 1.33301 0.666992 2 2 2l-2 25v270c0 1.33301 0.666992 6.66602 2 15.999
c0 1.33301 -0.666992 2 -2 2c0 2 0.666992 4.33301 2 7c-1.33301 70 -2 125 -2 165v2c0 6.66699 0.666992 13.667 2 21c-1.33301 5.33301 -2 11.666 -2 18.999v39c0 5.33301 -0.666992 11.666 -2 18.999c1.33301 2 2 5.33301 2 10l-2 15l4 18c-1.33301 8 -2 14.333 -2 19
c2 12.667 8.33301 19 19 19h79c3.33301 0 6 0.666992 8 2zM151.998 667.002c0 -3.33301 0.666992 -10.999 2 -22.999c0 -8 -0.666992 -36.667 -2 -86c0 -6 0.666992 -18.667 2 -38c-1.33301 -12 -2 -21 -2 -27c0 -6.66699 0.666992 -15 2 -25
c-1.33301 -20.667 -2 -42 -2 -64v-44c0 -1.33301 0.666992 -2 2 -2c0 -1.33301 -0.666992 -2 -2 -2l4 -182c-2 0 -4 -2 -6 -6v-3c4 -4.66699 6 -9.33398 6 -14.001v-54h42c48 0 72 23.667 72 71c2 0 4 2 6 6c-5.33301 7.33301 -8 14 -8 20v83c0 4.66699 -1 10.667 -3 18l3 5
c-2 14.667 -3 27.667 -3 39c0 18 1 34.667 3 50c-2 10.667 -3 27.334 -3 50.001c0 4.66699 1 11 3 19c-2 6.66699 -3 15 -3 25v16c0 5.33301 1 16.666 3 33.999v4l2 10c-3.33301 0 -5 1.33301 -5 4v43c0 56.667 -15.333 85 -46 85h-61c-2 0 -4 -4 -6 -12zM239.998 742.003
h-2l-2 2l-1 -2v-4l4 2zM338.998 119.003l5 -1l2 10h-6l2 -2l-2 -5z" />
    <glyph glyph-name="e" unicode="e" horiz-adv-x="344" 
d="M77 779l86.001 -0.000976562c4.66699 0 9.66699 -2 15 -6h8c7.33301 0 11 1.33301 11 4c1.33301 0 2 -0.666992 2 -2c14 1.33301 24.333 2 31 2h66c18 0 27 -10.333 27 -31l-3 -15c2 -2.66699 3 -4.66699 3 -6c0 -4 -2.33301 -6 -7 -6v-6l7 -8v-2
c0 -14 -7.66699 -21 -23 -21h-27c-1.33301 0 -2 -0.666992 -2 -2c-2 0 -3 0.666992 -3 2c-6.66699 0 -14.667 -0.666992 -24 -2c-26.667 1.33301 -52 2 -76 2v2c-2.66699 -1.33301 -6.33398 -2 -11.001 -2v-21c0 -9.33301 -0.666992 -14.666 -2 -15.999
c1.33301 -9.33301 2 -17 2 -23v-45c0 -5.33301 -0.666992 -13 -2 -23c1.33301 -2 2 -4.66699 2 -8s-0.666992 -6 -2 -8c1.33301 -10 2 -17.667 2 -23v-27c0 -1.33301 -0.666992 -2 -2 -2c2 -16.667 4 -27 6 -31c-2.66699 -0.666992 -4 -2.66699 -4 -6v-4h13c0 8 2 12 6 12
c15.333 0 29.333 -0.666992 42 -2c14 1.33301 26 2 36 2c23.333 0 35 -9.33301 35 -28v-50c0 -15.333 -7 -23 -21 -23h-102c-2 0 -3 0.666992 -3 2c-2.66699 -1.33301 -4.66699 -2 -6 -2c0 -8 0.666992 -25 2 -51c0 -8.66699 -0.666992 -19 -2 -31
c1.33301 -22 2 -44.333 2 -67v-8c0 -6.66699 -0.666992 -14.667 -2 -24c2.66699 -7.33301 4 -22 4 -44v-8c0 -1.33301 0.666992 -2 2 -2l-2 -4v-15c0.666992 -2.66699 2.33398 -4 5.00098 -4h142c15.333 0 23 -8.33301 23 -25c0 -6 -0.666992 -10.667 -2 -14
c1.33301 -9.33301 2 -16.666 2 -21.999v-17c0 -12.667 -12.667 -19 -38 -19c-8.66699 0 -25 -1.33301 -49 -4c-4 0 -6 0.666992 -6 2c-18.667 -1.33301 -32.334 -2 -41.001 -2h-54c-12.667 0 -27 -0.666992 -43 -2c-30.667 0 -46 7.66699 -46 23c0 50.667 0.666992 76 2 76
c-2.66699 4.66699 -4 8.66699 -4 12v178l2 10c0 4 -1.33301 8.33301 -4 13c1.33301 20 2 37 2 51v6l6 8v5c0 2.66699 -1.33301 4 -4 4l2 10v2c-4 5.33301 -6 11.666 -6 18.999v10c0 6 1.33301 11.667 4 17c-2.66699 5.33301 -4 13.333 -4 24v2c0 4.66699 0.666992 11 2 19
c-2.66699 4.66699 -4 10 -4 16v128c0 6 -0.666992 13.667 -2 23l2 4c-1.33301 23.333 -2 41.333 -2 54v26c0 7.33301 2 11 6 11v2c-4 0 -6 3.33301 -6 10v2c0 12.667 10.333 19 31 19zM258.001 751.999l-2 -2l-1 -2v-1l1 -2l2 1l1 1v2z" />
    <glyph glyph-name="f" unicode="f" horiz-adv-x="334" 
d="M53 212c0 3.33301 2.33398 7.66797 7.00098 13.001l-7 10l2 15l-2 10c1.33301 12.667 3 20.667 5 24c-3.33301 5.33301 -5 9.33301 -5 12l7 13c-4.66699 6.66699 -7 12.334 -7 17.001v8c0 5.33301 3.66699 11 11 17c-8.66699 0 -13 14 -13 42v10
c0.666992 3.33301 2 5 4 5l-2 8c0 1.33301 -0.666992 3.33301 -2 6c1.33301 8 2 13.667 2 17c0 2 -1.33301 16 -4 42l4 103c-2.66699 29.333 -4 61.666 -4 96.999c2.66699 1.33301 4.66699 2 6 2v2c-2.66699 5.33301 -4.66699 8 -6 8c0 2 0.666992 3 2 3l-2 14v40
c0 3.33301 -0.666992 6.33301 -2 9c3.33301 15.333 10.333 23 21 23h69c12 0 31 -0.666992 57 -2v-3l4 3h103c15.333 0 23 -10.667 23 -32v-8c0 -4.66699 -0.666992 -8.33398 -2 -11.001l2 -12v-15c-2.66699 -14 -9.66699 -21 -21 -21c-14 1.33301 -27.333 2 -40 2h-86
c-14 0 -21 -24.667 -21 -74v-61c0 -5.33301 0.666992 -13 2 -23c-1.33301 -2.66699 -2 -4.66699 -2 -6c1.33301 -10.667 2 -22 2 -34l-8 -14v-2c5.33301 0 9.66602 -3.66699 12.999 -11h27c4.66699 0 9.66699 -2 15 -6c0 4 14.667 6.66699 44 8l2 -4l2 -8
c4.66699 8 8 12 10 12h5c14 -2 21 -9 21 -21c0 -2.66699 -0.666992 -4 -2 -4l2 -25v-28c-1.33301 -15.333 -7 -23 -17 -23c-1.33301 0 -2 0.666992 -2 2l-25 -2h-38c0 2.66699 -0.666992 4 -2 4c-6.66699 -4 -13.667 -6 -21 -6l-11 2c-10 0 -15 -2.66699 -15 -8
c0 -10 0.666992 -25.333 2 -46l-6 -101h-2c4 -4.66699 6 -10.334 6 -17.001c0 -5.33301 -0.666992 -11.666 -2 -18.999c2 -14.667 3.33301 -23 4 -25c-0.666992 -2.66699 -2 -12.667 -4 -30c2.66699 -4.66699 4 -10 4 -16v-28c0 -2.66699 -0.666992 -5.33398 -2 -8.00098
l2 -4l-2 -9c3.33301 -9.33301 5 -17.666 5 -24.999c-3.33301 -8 -9 -13 -17 -15c-1.33301 -4 -5.66602 -6 -12.999 -6h-19c-7.33301 0 -17 0.666992 -29 2c-2.66699 -1.33301 -4.66699 -2 -6 -2c-4.66699 2.66699 -8.33398 4 -11.001 4v-2c-10 0 -15 10 -15 30v60
c0 2 2.33301 4.33301 7 7h10v4c-11.333 0 -17 2.66699 -17 8c3.33301 6.66699 5 13 5 19c-3.33301 0 -5 1.33301 -5 4v76z" />
    <glyph glyph-name="g" unicode="g" 
d="M205 790c64.667 0 111.999 -29.001 141.999 -87.001c12.667 -27.333 19 -63.666 19 -108.999c-2 -12 -8.33301 -18 -19 -18h-50c-1.33301 0 -2 0.666992 -2 2c-2.66699 -1.33301 -4.66699 -2 -6 -2c-21.333 0 -32 8.33301 -32 25v20c-3.33301 43.333 -17 65 -41 65
c0 1.33301 -2.66699 2 -8 2h-13c-13.333 0 -28 -8.33301 -44 -25c0 5.33301 -2.66699 8 -8 8l-2 -4v-2c6.66699 0 10 -1.33301 10 -4c-2.66699 -17.333 -4 -32 -4 -44v-328c0 -8 0.666992 -19.333 2 -34c-1.33301 0 -2 -7.66699 -2 -23v-2
c0.666992 -5.33301 1.33398 -13 2.00098 -23c0 -1.33301 -0.666992 -2 -2 -2l2 -25v-33c0 -8.66699 3 -21 9 -37v-7c20 -10.667 39.333 -16 58 -16c16 0 29.667 13 41 39l3 21v71c0 1.33301 0.666992 2 2 2l-2 4v131c0 2.66699 -1.66699 4 -5 4h-29
c-10.667 0 -17.667 3.66699 -21 11v14c0 3.33301 -0.666992 6.33301 -2 9c0 27.333 4.33301 41 13 41v2l-11 9v4c0 8 21 12 63 12h77c15.333 0 23 -10.333 23 -31v-275c0 -80.667 -35.333 -134 -106 -160c-25.333 -4.66699 -38 -7.33398 -38 -8.00098l-10 2h-13
c-72 0 -121 30.667 -147 92c-10 27.333 -15 49.333 -15 66v71c0 13.333 0.666992 20.333 2 21c-1.33301 11.333 -2 21 -2 29v189c0 25.333 -0.666992 57.333 -2 96c2.66699 5.33301 4 9.33301 4 12c-2.66699 5.33301 -4 11 -4 17v14c0 82.667 23.667 138.334 71 167.001
c24.667 18 57 27 97 27zM89.999 555.999l-4 2h-1l-4 -2v-5l1 -1l4 -2l4 2v6z" />
    <glyph glyph-name="h" unicode="h" horiz-adv-x="425" 
d="M288 786c58 -1.33301 87 -7.00293 87 -17.0029c1.33301 -2.66699 2 -6.33398 2 -11.001v-17l4 -6v-62c0 -10 -1.33301 -17.667 -4 -23l2 -13c-1.33301 0 -3.33301 -2 -6 -6c2 -8.66699 4.66699 -13.667 8 -15l-2 -15v-97c0 -5.33301 0.666992 -11.666 2 -18.999
c-1.33301 -2 -2 -7 -2 -15c0 -1.33301 0.666992 -3.33301 2 -6c0 -3.33301 -0.666992 -5 -2 -5c1.33301 -16.667 2 -28.667 2 -36v-133c0 -21.333 -1.33301 -38.333 -4 -51c1.33301 -7.33301 2 -14.333 2 -21v-9c0 -4.66699 -2 -9.66699 -6 -15
c4 -6.66699 6 -12.334 6 -17.001v-4c0 -9.33301 -0.666992 -17.666 -2 -24.999c1.33301 -7.33301 2 -16 2 -26c0 -6 -0.666992 -11.667 -2 -17c1.33301 -7.33301 2 -14.333 2 -21v-6c-1.33301 -36 -2 -56 -2 -60c0 -14 -7.66699 -21 -23 -21h-53
c-21.333 0 -32 7.66699 -32 23v47c0 2.66699 2 4 6 4v5h-6c0 7.33301 3.33301 14.333 10 21c-6.66699 0 -10 17 -10 51v2l12 8c-6 0 -10 0.666992 -12 2l2 5v8c0 3.33301 -0.666992 6.33301 -2 9c1.33301 14 2.66602 21 3.99902 21l-2 25v121c0 2.66699 -1.33301 4 -4 4
h-111v-42c0 -6 -0.666992 -13.667 -2 -23l2 -5c0 -2.66699 -0.666992 -4 -2 -4c1.33301 -16.667 2 -28.667 2 -36v-25c0 -6.66699 -0.666992 -14 -2 -22c1.33301 -5.33301 2 -10 2 -14c0 -5.33301 -0.666992 -26 -2 -62h2c0 -1.33301 -0.666992 -2 -2 -2
c1.33301 -14 2 -24.667 2 -32v-30c0 -39.333 -6.33301 -59 -19 -59c-7.33301 -1.33301 -13.666 -2 -18.999 -2h-49c-16.667 0 -25 8.33301 -25 25v43c0 20.667 0.666992 49.667 2 87c-1.33301 2.66699 -2 4.66699 -2 6c1.33301 3.33301 2.66602 14 3.99902 32l-2 4
c2.66699 24 4.66699 36 6 36c2.66699 0 9.33398 -1.33301 20.001 -4v6c0 3.33301 -8 7 -24 11c0 3.33301 -0.666992 9 -2 17c0 3.33301 0.666992 6 2 8c-2.66699 23.333 -4 46.666 -4 69.999c0 1.33301 0.666992 7 2 17c0 1.33301 -0.666992 2 -2 2l2 11v42
c0 10 0.666992 25.667 2 47h-2c0 1.33301 0.666992 2 2 2l-2 26v10c0 108.667 2 174.334 6 197.001c-1.33301 26.667 -2 46 -2 58v17c2 12.667 8.33301 19 19 19h70l11 -2v-7l-2 -6c5.33301 -1.33301 8 -5.66602 8 -12.999v-30c0 -6.66699 -1.33301 -10 -4 -10
c2.66699 -11.333 4 -20.666 4 -27.999c0 -4.66699 -0.666992 -11 -2 -19c1.33301 -7.33301 2 -14.333 2 -21c0 -6 -0.666992 -11.667 -2 -17c1.33301 -9.33301 2 -18.666 2 -27.999v-23c0 -6 -0.666992 -13.667 -2 -23c1.33301 -1.33301 2 -7 2 -17
c0 -1.33301 -0.666992 -2 -2 -2l2 -5v-36c0 -6.66699 -2.66699 -10 -8 -10v-2c5.33301 0 8 -8 8 -24v-4h113v17c0 10 0.666992 15.667 2 17c-1.33301 10 -2 17.667 -2 23v58c0 9.33301 0.666992 15 2 17c-1.33301 9.33301 -2 17 -2 23v148c0 17.333 6.33301 26 19 26z" />
    <glyph glyph-name="i" unicode="i" horiz-adv-x="198" 
d="M108 783l25.999 -2.00586l4 2c11.333 -3.33301 17 -12 17 -26v-19c0 -9.33301 -0.666992 -17.666 -2 -24.999c1.33301 -7.33301 2 -16 2 -26v-8l-2 -13c1.33301 -2.66699 2 -4.66699 2 -6l-2 -11c2.66699 -15.333 4 -33 4 -53v-64c0 -3.33301 -1.33301 -7.33301 -4 -12
c2.66699 -9.33301 4 -15.666 4 -18.999v-15c0 -3.33301 -1.33301 -9.66602 -4 -18.999c2.66699 -4.66699 4 -9 4 -13v-61c0 -5.33301 -2 -12.666 -6 -21.999c2.66699 -4.66699 4 -8.66699 4 -12v-2c0 -2 -0.666992 -3 -2 -3l2 -4v-66c0 -7.33301 -2 -13.666 -6 -18.999
c2.66699 -4.66699 4 -8.66699 4 -12v-64c0 -6 -0.666992 -13.667 -2 -23c1.33301 -2.66699 2 -5.66699 2 -9c-3.33301 -11.333 -5.66602 -17 -6.99902 -17c2 -4 3.66699 -6 5 -6c0 -1.33301 -0.666992 -2 -2 -2l2 -26v-31c0 -6 -0.666992 -11.667 -2 -17
c1.33301 -6 2 -11.667 2 -17v-24c0 -15.333 -10 -23 -30 -23c-8 0 -15.667 5.66699 -23 17h-5v-4l5 -7v-4l-15 -2h-13c-16.667 0 -25 5 -25 15l-2 13c0 0.666992 0.666992 4.66699 2 12l-2 9l2 8c-1.33301 8 -2 13.667 -2 17c2.66699 8.66699 4.66699 13 6 13l-6 32
c0 9.33301 2.66699 17 8 23c-5.33301 2 -8 4 -8 6v11c0 7.33301 1.33301 11 4 11l-2 4v8l2 13c-2.66699 7.33301 -4 12.333 -4 15c1.33301 10 2 18.333 2 25l-2 9c1.33301 2 2 5.33301 2 10c0 2 -0.666992 3 -2 3l2 4v38c0 4.66699 0.666992 8.33398 2 11.001l-4 38
c1.33301 2 2 5.33301 2 10l-2 9c2.66699 4.66699 4 8.66699 4 12l-2 22c1.33301 5.33301 2 10.333 2 15h-2l2 4v61c0 6 -0.666992 11.667 -2 17c1.33301 21.333 3.33301 35.666 6 42.999c-2.66699 4.66699 -4 8.66699 -4 12v7c0 6.66699 0.666992 13.667 2 21
c-1.33301 5.33301 -2 11 -2 17c0 9.33301 2 17 6 23v7h-6v4c3.33301 0 6 2.66699 8 8v4c0 3.33301 -1.33301 5 -4 5l-4 -2l-2 4v36c0 6 0.666992 13.667 2 23c-1.33301 2.66699 -2 6.33398 -2 11.001h2l-2 4v2l2 13l-2 4l4 13c-2.66699 4.66699 -4 8 -4 10
c0 14.667 17 22 51 22h12zM125.999 680.994l3 6l-9 -2l-2 1v-3l6 -6zM93.999 649.994l-2 2l-6 -6l2 -2l2 2l6 -1z" />
    <glyph glyph-name="j" unicode="j" horiz-adv-x="390" 
d="M304 780l28.001 -0.00195312c11.333 0 17 -7.66699 17 -23v-34c0 -6.66699 -0.666992 -14 -2 -22c1.33301 -5.33301 2 -10 2 -14l-2 -13c1.33301 -10 2 -15.667 2 -17c-1.33301 -37.333 -2 -65 -2 -83h2l-2 -4l6 -102l-2 -10c2.66699 -164.667 4 -266 4 -304
c-6 -84.667 -40 -136.667 -102 -156c-26 -7.33301 -47 -11 -63 -11l-15 4l-15 -2c-39.333 6.66699 -69 18.667 -89 36c-36.667 38 -55 85.333 -55 142c0 28.667 6.33301 43 19 43c3.33301 0 6.33301 0.666992 9 2c14 -1.33301 25 -2 33 -2h32c14 0 21 -17.667 21 -53
c0 -34 9.33301 -55.333 28 -64c13.333 -2.66699 24 -4 32 -4c35.333 4 53 18.667 53 44c0 22.667 0.666992 60.334 2 113.001c-4 125.333 -6 210 -6 254l-3 13c2 5.33301 3 11 3 17v48c0 8 0.666992 14.667 2 20c-1.33301 7.33301 -2 14.333 -2 21v46
c0 13.333 0.666992 25.333 2 36c-1.33301 6.66699 -2 17.334 -2 32.001v15c0 20 8.33301 30 25 30c7.33301 1.33301 20.666 2 39.999 2zM316.001 582.998l-1 1l-1 -1v-1zM279.001 573.998h4l-4 3v-3zM291.001 580.998l2 -2v4z" />
    <glyph glyph-name="k" unicode="k" horiz-adv-x="419" 
d="M70 774h58.001c19.333 0 29 -8.33301 29 -25v-39c0 -11.333 -0.666992 -21.333 -2 -30c1.33301 -6.66699 2 -15.667 2 -27v-12c0 -3.33301 0.666992 -6 2 -8c0 -1.33301 -0.666992 -2 -2 -2c1.33301 -14 2 -24.667 2 -32v-35c0 -28.667 0.666992 -53.667 2 -75
c-1.33301 -10.667 -2 -31.334 -2 -62.001h4c3.33301 0 19.333 45 48 135c2.66699 15.333 7.66699 23 15 23c-2.66699 4.66699 -4 8.66699 -4 12v4c15.333 39.333 24.333 59 27 59l2 4v2c15.333 72 31.333 108 48 108c2.66699 0 4 -0.666992 4 -2l25 2h56
c2 0 5.33301 -2.66699 10 -8c-12.667 -39.333 -21 -60.333 -25 -63c-5.33301 0 -8 -1.33301 -8 -4v-4c4 0 6 -2 6 -6l-106 -294c22.667 -48.667 38 -90 46 -124c8 -9.33301 12 -21.333 12 -36h-8v-4c16 0 34 -38 54 -114c2.66699 -2.66699 17.334 -38.667 44.001 -108
c-2 -7.33301 -9 -11 -21 -11c-38 1.33301 -62.333 2 -73 2c-4.66699 -1.33301 -7.33398 -2 -8.00098 -2c-10 0 -21 25 -33 75c-8.66699 16.667 -43.334 113.667 -104.001 291c-3.33301 6 -5.66602 9 -6.99902 9h-4v-63c0 -1.33301 -0.666992 -2 -2 -2l2 -4v-25
c0 -9.33301 1.33301 -59.333 4 -150v-25c0 -1.33301 0.666992 -2 2 -2c-1.33301 -2.66699 -2 -4.66699 -2 -6c0 -10.667 0.666992 -35 2 -73c0 -15.333 -12.333 -26.333 -37 -33c0 4 -9.66699 6.66699 -29 8c-7.33301 -1.33301 -15 -2 -23 -2c-14 4.66699 -21 11.667 -21 21
v158l9 8v2c-4.66699 0 -8.33398 0.666992 -11.001 2l2 11c0 6.66699 -0.666992 13.667 -2 21l2 12l-2 11l4 10c-2.66699 0 -4 1.33301 -4 4v79c0 20.667 -0.666992 39.334 -2 56.001c1.33301 12 2 21 2 27c-1.33301 68 -2 121.667 -2 161h-2
c2.66699 6.66699 4.66699 10 6 10l-2 14v34c0 14.667 -0.666992 30 -2 46l2 14c-1.33301 16 -2 34 -2 54v4c2 12.667 8.33301 19 19 19z" />
    <glyph glyph-name="l" unicode="l" horiz-adv-x="344" 
d="M72 789l55.001 0.00195312c16.667 0 25 -12 25 -36c1.33301 -12.667 2 -23.334 2 -32.001c-1.33301 -17.333 -2 -26.666 -2 -27.999l4 -61c-1.33301 -8 -2 -13.667 -2 -17l2 -11c-0.666992 -15.333 -2 -23 -4 -23c0 -1.33301 0.666992 -2 2 -2
c1.33301 -28.667 2 -48.334 2 -59.001c0 -14 -0.666992 -41.667 -2 -83l2 -11c-1.33301 -38 -2 -58.333 -2 -61l4 -15l-2 -9c1.33301 -10 3 -16.333 5 -19c-2 -19.333 -3 -36.333 -3 -51v-29l3 -13c-2 -7.33301 -3.66699 -11 -5 -11l2 -25v-93h159
c8.66699 -3.33301 13 -13.333 13 -30v-47c0 -16.667 -10.667 -25 -32 -25h-4c-1.33301 0 -2 0.666992 -2 2l-4 -2h-2c-1.33301 0 -2 0.666992 -2 2l-5 -2h-10l-7 4l-6 -4h-51c-10 0 -15.667 0.666992 -17 2c-9.33301 -1.33301 -17 -2 -23 -2h-87c-20 0 -30 7 -30 21l4 32
c-2.66699 4.66699 -4 9 -4 13v12c0 2 0.666992 3 2 3l-2 4v97c0 5.33301 -0.666992 11.666 -2 18.999c1.33301 2 2 7 2 15l-2 13c0 1.33301 0.666992 3.33301 2 6c0 2.66699 -0.666992 11.334 -2 26.001c1.33301 78.667 2.66602 118 3.99902 118
c-1.33301 13.333 -2 26.333 -2 39l-2 129c0 10 0.666992 15.667 2 17c-1.33301 10 -2 18.333 -2 25v81c0 5.33301 0.666992 11.666 2 18.999c-0.666992 5.33301 -2 8 -4 8l2 5v65c0 16 8.66699 24 26 24zM72.001 85.002v-2h4v2h-4zM80.001 49.002v-4
c0.666992 -3.33301 2 -5 4 -5h2v3c0 2 -2 4 -6 6z" />
    <glyph glyph-name="m" unicode="m" horiz-adv-x="566" 
d="M521 383c0 -1.33301 0.663086 -3.32617 1.99609 -5.99316c-0.666992 -2 -1.33398 -3.66699 -2.00098 -5v-36c0 -2.66699 -1.33301 -4 -4 -4l2 -21c0 -1.33301 1 -17.5 3 -48.5s3 -57.167 3 -78.5l-2 -77c0 -2.66699 0.666992 -5.33398 2 -8.00098
c-1.33301 -2.66699 -2 -6.33398 -2 -11.001c2.66699 -14.667 4 -24.334 4 -29.001v-9c0 -6 -0.666992 -13.667 -2 -23c1.33301 -2.66699 2 -6.33398 2 -11.001c0 -11.333 -8.33301 -17 -25 -17l-15 2c-5.33301 -2.66699 -11 -4 -17 -4h-10c-21.333 0 -32 8.66699 -32 26v27
c0.666992 10 2 15 4 15l-4 11c0 14 -0.333008 24.167 -1 30.5s-1 15.166 -1 26.499v27c0 4.66699 0.666992 7 2 7l-2 10v130c2.66699 13.333 4 21 4 23c-2.66699 0 -4 1.33301 -4 4v51c0 3.33301 -0.666992 6.33301 -2 9c2.66699 5.33301 4 9.33301 4 12
c-2.66699 4.66699 -4 9 -4 13v32c0 6.66699 2.66699 11 8 13c-2.66699 12 -4 19.667 -4 23l2 4c-4 8 -6 16.667 -6 26l2 48h-2l-19 -80c0 -3.33301 -3 -5 -9 -5v-2c6 0 9 -2.66699 9 -8c-13.333 -76 -23.333 -129.667 -30 -161h2c-6.66699 -18.667 -16 -69 -28 -151
c-6.66699 -30.667 -11.334 -46 -14.001 -46c0 -2 0.666992 -4.33301 2 -7c-1.33301 -10 -3 -16.333 -5 -19l-2 -27c-2.66699 -20 -4 -30.667 -4 -32c-3.33301 -20 -11 -30 -23 -30h-4c-6 0 -14 0.666992 -24 2c-2.66699 -1.33301 -4.66699 -2 -6 -2
c-13.333 0 -21 16.333 -23 49l-7 27c-10 43.333 -15 71 -15 83l-12 55c-4.66699 31.333 -16 90 -34 176v9c-11.333 46.667 -19.333 87.667 -24 123l-4 14l2 5v12h-8v3l4 6c0 2.66699 -1.33301 4 -4 4h-2c0 -2 -1.66699 -8.33301 -5 -19c0 -2.66699 1.66699 -7 5 -13
c0 -4 -0.666992 -6 -2 -6c1.33301 -23.333 2 -41 2 -53v-76c0 -6 -0.666992 -14 -2 -24c1.33301 -2 2 -19 2 -51c0 -46.667 0.666992 -109.334 2 -188.001c-1.33301 -5.33301 -2 -13.333 -2 -24v-97c-2 -7.33301 -9 -12.333 -21 -15l-32 -2c-6 2.66699 -11 4 -15 4l-15 -2
c-7.33301 0 -11.666 10.667 -12.999 32c0 1.33301 1.33301 9 4 23c-1.33301 0 -3.33301 0.666992 -6 2c0 2 0.666992 4.33301 2 7c0 4 -0.666992 6 -2 6l2 26v16c0 7.33301 -0.666992 14.666 -2 21.999c1.33301 15.333 3.33301 23 6 23c-4 22 -6 47.333 -6 76v98l4 6l-6 43
v103c0.666992 10 2 15 4 15c-1.33301 4.66699 -2.66602 7 -3.99902 7c0 1.33301 0.666992 3.33301 2 6c-1.33301 36.667 -2 61.334 -2 74.001c0 7.33301 0.666992 13.666 2 18.999c-1.33301 12.667 -2 23.334 -2 32.001v47c0 8.66699 0.666992 17.667 2 27
c-1.33301 5.33301 -2 13.333 -2 24v6l4 6c-2.66699 4 -4 7 -4 9l4 23c2 7.33301 12 11 30 11h2c7.33301 -0.666992 11 -2 11 -4c2.66699 1.33301 4.66699 2 6 2l5 -2c4 2.66699 8 4 12 4h8c3.33301 -0.666992 5 -2 5 -4l10 2h7c8 1.33301 13.667 2 17 2
c20.667 0 31 -20.667 31 -62c4.66699 -8 13.334 -49.667 26.001 -125l-2 -10c4.66699 -1.33301 8 -15.666 10 -42.999l-4 -2c15.333 -36.667 23 -72 23 -106l-4 -2c10.667 -18 20 -54 28 -108c1.33301 0 7 -27 17 -81h4l19 96c10.667 76 18.334 114 23.001 114v19
c4.66699 9.33301 10.334 15.666 17.001 18.999l-8 2v5c2.66699 23.333 10.334 60.333 23.001 111c-2 2.66699 -4 6 -6 10c1.33301 2 2 4.66699 2 8c2.66699 0 4 -2 4 -6h4v6h-6v8l4 7v2c0 1.33301 -0.666992 2 -2 2c2 6 4 9 6 9l3 21v2c8 66.667 14.333 100 19 100
c4.66699 2.66699 8.66699 4 12 4h62c26.667 -2.66699 42.334 -4 47.001 -4v-5l3 -13l5 -12c0 -6 0.666992 -9 2 -9l-2 -4c2.66699 -16 4 -28 4 -36c0 -1.33301 -0.666992 -7 -2 -17c1.33301 -2.66699 2 -4.66699 2 -6l-2 -9l2 -10
c-0.666992 -20 -3.33398 -31.333 -8.00098 -34v-2c4 0 6 -1.66699 6 -5v-2c0 -2.66699 -1.33301 -4 -4 -4l4 -34v-27l-2 -13c1.33301 -2.66699 2 -6.33398 2 -11.001v-129c0 -3.33301 0.666992 -6.33301 2 -9c-1.33301 -2 -2 -4.66699 -2 -8zM99.9961 23.0068v2h-3v-2h3z
" />
    <glyph glyph-name="n" unicode="n" horiz-adv-x="440" 
d="M315 789c2.66699 -1.33301 5 -2.00781 7 -2.00781c8 0 26 0.666992 54 2c12.667 0 19 -18.333 19 -55c0 -12 1.33301 -25.667 4 -41l-4 -9c1.33301 -10 2 -18.333 2 -25c0 -3.33301 -0.666992 -9 -2 -17v-17c-2 -1.33301 -6.33301 -2 -13 -2v-4
c8.66699 0 13 -3.66699 13 -11v-165c-2.66699 -61.333 -4 -98.666 -4 -111.999c2.66699 -22 6.33398 -82 11.001 -180c-1.33301 -19.333 -2 -35.666 -2 -48.999c2.66699 -38 4 -61 4 -69c0 -18.667 -6.33301 -28 -19 -28c-49.333 -1.33301 -75.333 -2 -78 -2
c-15.333 0 -25 17.667 -29 53c-10 44.667 -20 78.334 -30 101.001c1.33301 2.66699 2 5.33398 2 8.00098c-18.667 76 -51.334 200 -98.001 372c-4.66699 30 -9 45 -13 45h-2v-26c0 -29.333 0.666992 -62.666 2 -99.999l-2 -15c1.33301 -10 2.66602 -16.333 3.99902 -19
c-1.33301 -25.333 -2 -46 -2 -62v-29c2.66699 -21.333 4 -33 4 -35v-45c4 -44 6 -91.667 6 -143v-36c0 -8 1 -18 3 -30c0 -28.667 -13 -43 -39 -43c-5.33301 0 -18.333 -0.666992 -39 -2c-16.667 0 -25 17 -25 51c-1.33301 41.333 -2 81.333 -2 120
c0 1.33301 0.666992 2 2 2c-1.33301 2 -2.66602 10.667 -3.99902 26c-2 98.667 -3 182.334 -3 251.001v14c0 3.33301 -0.666992 6.33301 -2 9c1.33301 2.66699 2 4.66699 2 6c-4 21.333 -6 52.333 -6 93v17c0 6 0.666992 12.667 2 20c-2.66699 5.33301 -4 11 -4 17v135
c0 12.667 7 19 21 19c16.667 0 51.667 0.666992 105 2c10.667 0 20.667 -28 30 -84c10 -33.333 45 -167.666 105 -402.999h6l-3 354h-2l4 9l-6 40c1.33301 28.667 2 50.334 2 65.001c0 1.33301 -0.666992 3.33301 -2 6c4 15.333 11 23 21 23zM319 36.9922h2v3l1 2l-2 2
l-3 -5z" />
    <glyph glyph-name="o" unicode="o" horiz-adv-x="415" 
d="M225 793l6 0.00195312c28.667 -6.66699 52.667 -13.667 72 -21c39.333 -35.333 59 -67 59 -95c0 -2.66699 -1.33301 -4 -4 -4c-2.66699 1.33301 -4.66699 2 -6 2v-2c11.333 -5.33301 17 -14.666 17 -27.999c1.33301 -13.333 2 -26.666 2 -39.999v-32
c0 -7.33301 -1.33301 -16 -4 -26c1.33301 -2 2 -4.66699 2 -8h-2c4 -6 6 -35 6 -87v-17l2 -25c-2 0 -4 -2.33301 -6 -7c5.33301 -4.66699 8 -19.334 8 -44.001v-100c0 -14 0.666992 -31.667 2 -53c-1.33301 -4 -2 -12.333 -2 -25c1.33301 -18 2 -27.333 2 -28
c-8 -55.333 -16.333 -83 -25 -83c-21.333 -52 -70 -78 -146 -78h-5c-38.667 0 -69 9.33301 -91 28v-3c-10 0 -27 17 -51 51c-12.667 21.333 -19 49.666 -19 84.999h-2c1.33301 2.66699 2 4.66699 2 6c0 7.33301 -0.666992 21.666 -2 42.999c1.33301 8 2 13.667 2 17h-2
c0 1.33301 0.666992 2 2 2l-2 25v3c0 8.66699 0.666992 17.667 2 27c-2.66699 26 -4.66699 41 -6 45c2.66699 7.33301 4 22 4 44v115l2 4l5 -2h4v6c-8.66699 4 -13 21 -13 51v8c0 5.33301 0.666992 9 2 11c-1.33301 10 -2 17.667 -2 23v5
c0 95.333 20.667 154.666 62 177.999c16 17.333 57.667 27 125 29zM227 696.002c-2.66699 0 -4 1.33105 -4 3.99805c-34 0 -56.667 -8.33301 -68 -25c-6 -12.667 -9 -31 -9 -55h2c0 -9.33301 -4.66699 -20 -14 -32c6.66699 0 10.667 -5 12 -15
c0 -2.66699 -0.666992 -4 -2 -4c1.33301 -26.667 2 -46 2 -58v-63c0 -6 0.666992 -14 2 -24c-1.33301 -1.33301 -2 -6.66602 -2 -15.999h2l-2 -5c1.33301 -15.333 2 -28.666 2 -39.999c0 -5.33301 -4 -11.666 -12 -18.999v-2c9.33301 -8.66699 14 -21.334 14 -38.001l-2 -13
c3.33301 -9.33301 5 -15.666 5 -18.999v-125c0 -23.333 5.5 -38.833 16.5 -46.5s26.5 -11.5 46.5 -11.5c10.667 0 20 1.66699 28 5c16.667 9.33301 25 22.666 25 39.999l-4 307l2 11c-2.66699 14.667 -4 40.667 -4 78v28c0 3.33301 -0.666992 6.33301 -2 9
c0 1.33301 0.666992 2 2 2c-1.33301 16.667 -2 28.667 -2 36v31c0 20.667 -6.33301 40 -19 58h2zM348 263l4 -1.99902h2v7h-2c-2.66699 -0.666992 -4 -2.33398 -4 -5.00098z" />
    <glyph glyph-name="p" unicode="p" horiz-adv-x="402" 
d="M160 778l35.998 0.00292969c82 0 135.667 -26.667 161 -80c4 -10 6 -16.333 6 -19v-4h-2l-4 2c-3.33301 -1.33301 -5.66602 -2 -6.99902 -2v-4c16 0 25.333 -20.667 28 -62c0 -2 -0.666992 -4.33301 -2 -7c2 -18 3.33301 -28.667 4 -32c-1.33301 -8 -2 -14.333 -2 -19
v-22c-4 -81.333 -16 -129.666 -36 -144.999c0 -10.667 -13.667 -24.334 -41 -41.001c-25.333 -12.667 -52.333 -19 -81 -19h-58c-3.33301 -0.666992 -5 -2.33398 -5 -5.00098v-19c0 -8.66699 -0.666992 -19.334 -2 -32.001c1.33301 -10.667 3 -17.667 5 -21
c-2 -10 -3 -18 -3 -24v-28c-2.66699 -10 -4 -15.667 -4 -17c6 -5.33301 9 -36 9 -92l-5 -2l3 -15v-9l-13 -62c-2 0 -13.333 -1.33301 -34 -4h-39c-17.333 0.666992 -26 8.66699 -26 24l2 10l-2 20l2 15c0 2.66699 -0.666992 4 -2 4l2 25v50c0 4.66699 1 11 3 19l-5 11
c1.33301 2 2 4.66699 2 8c0 2 -0.666992 4.33301 -2 7c1.33301 3.33301 3 10.333 5 21c-2 14 -3 24.667 -3 32c3.33301 26.667 5 44 5 52v17c0 5.33301 -1.66699 14.666 -5 27.999c0 5.33301 1 8 3 8c-2 14.667 -3 25.334 -3 32.001v69c0 25.333 3 38 9 38h2v2
c0 3.33301 -3.66699 5.66602 -11 6.99902v11c0 8 -0.666992 13 -2 15l5 62l-7 87l2 11c-1.33301 4.66699 -2.66602 7 -3.99902 7c2.66699 5.33301 4 9.33301 4 12c-1.33301 26.667 -2 46 -2 58h-2c1.33301 7.33301 6.33301 14 15 20c45.333 1.33301 79 2 101 2z
M165.998 679.003l-11 -2v-36c0 -26.667 -0.666992 -49 -2 -67l7 -115l4 -21v-4l13 -14c0 2.66699 1.33301 4 4 4h6c6 0 12 -3.33301 18 -10c0 8 10.667 13 32 15c21.333 10.667 32 31.334 32 62.001c0 33.333 0.666992 51.666 2 54.999c0 63.333 -10 104 -30 122
c-12.667 6 -24 9 -34 9l-35 4zM338.998 679.003v-4h9c0 2.66699 -1.33301 4 -4 4h-5zM330.998 403.003l-2 -4l4 -2h2v2c0 2.66699 -1.33301 4 -4 4zM288.998 696.003l2 5h-4l-3 -5h5z" />
    <glyph glyph-name="q" unicode="q" horiz-adv-x="437" 
d="M225 783c59.333 0 104.001 -32.332 134.001 -96.999c10 -25.333 15 -54.666 15 -87.999v-4c0 -14 -0.666992 -21 -2 -21c1.33301 -12 2 -22 2 -30v-12c0 -54 -1.33301 -104.333 -4 -151l2 -4c-2.66699 -4.66699 -4 -8.33398 -4 -11.001c1.33301 -4 2.66602 -6 3.99902 -6
l-2 -21c0 -6 0.666992 -11.667 2 -17c-1.33301 -5.33301 -2 -10.333 -2 -15c0 -1.33301 0.666992 -2 2 -2c0 -2.66699 -0.666992 -4 -2 -4c1.33301 -35.333 2 -63.333 2 -84v-67c0 -40 13.333 -63 40 -69c12.667 0 19 -9.33301 19 -28v-54c0 -8 -4.33301 -13.667 -13 -17
c-18.667 0 -40.334 7.66699 -65.001 23c-4.66699 0 -13.667 5 -27 15c-38 -20 -63.333 -30 -76 -30l-4 2c-6.66699 -2.66699 -15.667 -4 -27 -4h-7c-77.333 0 -129.666 32.333 -156.999 97c-11.333 17.333 -17 58.666 -17 123.999l4 8l-2 11c2.66699 4 4 8 4 12
c-2.66699 4.66699 -4 9 -4 13v14c0 9.33301 0.666992 23.333 2 42h-2c1.33301 2.66699 2 5 2 7c-4 106 -6 176 -6 210c0 9.33301 5 14 15 14v7h-7l-4 -3l-4 7v10c0 10 0.666992 18.333 2 25c-1.33301 8 -2 16 -2 24c10.667 66.667 20.334 100 29.001 100c26 42 52 63 78 63
c17.333 7.33301 44.666 11 81.999 11zM147.001 602.001l-0.00195312 -30.999c0 -8 -0.666992 -13 -2 -15l2 -10c-1.33301 -90.667 -2 -160.667 -2 -210v-11c0 -8 0.666992 -19 2 -33l-2 -5c1.33301 -11.333 2 -21 2 -29v-23c0 -7.33301 -1.33301 -11 -4 -11
c3.33301 0 6 -20 8 -60c-0.666992 -2.66699 -2 -11.334 -4 -26.001c1.33301 -2 2 -4.66699 2 -8c-2 0 -4 -2 -6 -6v-4l2 -5l4 2h7c9.33301 -20.667 24 -31 44 -31h12c24 0 40.333 9.66699 49 29c0 1.33301 1.33301 5 4 11c0 14 -1.33301 21 -4 21
c0 1.33301 0.666992 8.33301 2 21c0 14 -0.666992 42.667 -2 86l2 21h-2c0 1.33301 0.666992 2 2 2c-1.33301 20 -3.66602 35.333 -6.99902 46c6.66699 2.66699 10.334 5.33398 11.001 8.00098v3c0 2.66699 -1.33301 4 -4 4c1.33301 9.33301 3.33301 16.333 6 21
c-0.666992 0 -2.66699 2 -6 6c0 1.33301 0.666992 2 2 2c-1.33301 28.667 -2 48.334 -2 59.001c0 22 2 35.333 6 40v2c-4 5.33301 -6 10.333 -6 15v52c0 3.33301 1.33301 9.66602 4 18.999c-2.66699 4.66699 -4 8 -4 10c0 5.33301 0.666992 11.666 2 18.999
c0 66 -16.333 99 -49 99h-14c-35.333 -4 -53 -18.667 -53 -44c-1.33301 -10.667 -2 -22.667 -2 -36zM310.999 182.002l3 -4l1 9z" />
    <glyph glyph-name="r" unicode="r" horiz-adv-x="404" 
d="M220 781c64 0 109.329 -28.998 135.996 -86.998c7.33301 -22.667 12.333 -48 15 -76v-20c0 -4 0.666992 -6 2 -6l-2 -11v-61c0 -73.333 -20.667 -125 -62 -155c0 -5.33301 -12 -15 -36 -29c16.667 -48 40 -106.667 70 -176c35.333 -90 53 -140.333 53 -151v-2
c0 -10 -33 -15 -99 -15c-11.333 0 -27.666 37.333 -48.999 112c-36.667 98 -62 169.667 -76 215l-5 2h-10c-1.33301 0 -3.66602 -2.33301 -6.99902 -7c2 -33.333 3 -58 3 -74v-93c0 -1.33301 -1 -2 -3 -2c3.33301 -6.66699 5 -16 5 -28v-49
c0 -14.667 1.33301 -34.334 4 -59.001l-6 -4l2 -4c-2 -6 -8.33301 -9 -19 -9h-49c-5.33301 0 -11.666 -0.666992 -18.999 -2c-12.667 2 -19 10.333 -19 25v30l2 13c-2.66699 7.33301 -4 17.333 -4 30c2 0 4 2 6 6l-6 8v22c0 6.66699 -1 13.667 -3 21c2 5.33301 3 11 3 17h-3
l3 4v8c0 2 -1 3 -3 3c2 6.66699 5 10 9 10v4h-9v3l5 14c-3.33301 0 -5 1.66699 -5 5l4 49c0 1.33301 -0.666992 2 -2 2c0 1.33301 0.666992 2 2 2c-1.33301 19.333 -2 33.333 -2 42v53l-2 22c2 0 4.33301 2 7 6c-4 0 -6.33301 2.66699 -7 8c0 6 0.666992 14 2 24
c0 1.33301 -0.666992 3.33301 -2 6c0 1.33301 0.666992 5.66602 2 12.999l-2 74l2 12v229c2.66699 16 10.334 24 23.001 24c64.667 1.33301 115 2 151 2zM147.996 677.002l-2 -12.999c2.66699 -18.667 4 -39 4 -61v-121c0 -12 1 -31 3 -57l4 -3h27
c37.333 0 61.333 9.33301 72 28c0 2.66699 3.66699 4 11 4v2c0 5.33301 -0.666992 11.666 -2 18.999l6 11l-4 6c0 4.66699 0.666992 7 2 7l-2 10v47c0 11.333 -0.666992 26.333 -2 45c2.66699 5.33301 4 9.33301 4 12c-2.66699 0 -7.66699 12.667 -15 38
c-12 17.333 -23.333 26 -34 26h-72zM122.996 680.003v3h-2v-2h1zM77.9961 732.003v-4l4 4h-4zM314.996 697.003l2 -6l5 -3v9h-7zM86.9961 744.003h3l1 2l-1 2l-3 -1v-3z" />
    <glyph glyph-name="s" unicode="s" horiz-adv-x="386" 
d="M184 787h22.998c63.333 0 109 -29.333 137 -88c8.66699 -17.333 13 -51.333 13 -102c-2.66699 -12 -9 -18 -19 -18c-8 1.33301 -14.333 4 -19 8c0 -2 -2 -4 -6 -6c-11.333 0 -26 -0.666992 -44 -2c-8.66699 0 -14 6 -16 18v40c0 25.333 -14 42.666 -42 51.999h-27
c-28.667 0 -46 -23 -52 -69c6.66699 -37.333 18.334 -67.666 35.001 -90.999c0 -3.33301 39 -62.333 117 -177c50 -83.333 75 -146.333 75 -189c-5.33301 -66 -14.333 -99.333 -27 -100c-4 0 -6 -2 -6 -6l-15 2v-7h6v-14c-17.333 -22 -32 -33 -44 -33l-4 2
c0 -8 -20.667 -13.667 -62 -17c-118 0 -177 67.333 -177 202v4c2.66699 14 9.66699 21 21 21h17c4.66699 0 10.667 0.666992 18 2c2.66699 -1.33301 4.66699 -2 6 -2c12.667 1.33301 20.334 2 23.001 2c18 0 27 -10.333 27 -31v-27c0 -47.333 21 -71 63 -71
c34.667 0 52 19.333 52 58v15c0 39.333 -52 132 -156 278c-44.667 74 -67 132.333 -67 175v11c0 27.333 1.66699 42.333 5 45s5 5.66699 5 9c0 20 16 45 48 75c26 20.667 56.667 31 92 31zM300.998 618l-1 -1l5 2h-1l-3 3v-4zM304.998 630l-2 -2l2 -3l3 1l-2 4h-1z
M308.998 631l3 2l-3 6h-3l-4 -6z" />
    <glyph glyph-name="t" unicode="t" horiz-adv-x="360" 
d="M330 779c12.667 0 19.001 -9.67188 19.001 -29.0049v-30c0 -26.667 -8.33301 -40 -25 -40h-86c-2.66699 0 -4 -1.33301 -4 -4v-14c0 -4.66699 -0.666992 -7 -2 -7c0 -1.33301 0.666992 -3.33301 2 -6c1.33301 -34.667 2 -62 2 -82v-25
c0 -9.33301 -0.666992 -18.666 -2 -27.999c1.33301 -5.33301 2 -13 2 -23v-17c-2.66699 -9.33301 -4 -14.666 -4 -15.999h2v-17c2.66699 0 4 -1.33301 4 -4c0 -6.66699 -1.33301 -12.667 -4 -18c1.33301 -16.667 2.66602 -25 3.99902 -25c0 -1.33301 -0.666992 -2 -2 -2
c1.33301 -7.33301 2 -12.666 2 -15.999c-2.66699 -79.333 -4 -121.333 -4 -126h2l-2 -4v-35c0 -7.33301 0.666992 -12 2 -14c-1.33301 -7.33301 -2 -11.666 -2 -12.999c1.33301 -55.333 2 -93.666 2 -114.999h2l-2 -4c1.33301 -20.667 2 -36.334 2 -47.001
c0 -14 -10.333 -21 -31 -21h-17c-11.333 0 -25 -0.666992 -41 -2c-12 3.33301 -18 9 -18 17l2 14c-1.33301 6.66699 -2 12 -2 16c2.66699 0 4 1.33301 4 4v4c-4 12.667 -6 37 -6 73v72c0 5.33301 -0.666992 13 -2 23c5.33301 14.667 8 23.334 8 26.001v2
c-4 0 -6 3.33301 -6 10v185c0 3.33301 -0.666992 6 -2 8c2 7.33301 5.33301 13.666 10 18.999v2c-6.66699 0 -10 5.66699 -10 17v4c0 4.66699 0.666992 8 2 10c-3.33301 19.333 -5 56 -5 110v19c0 5.33301 1 11.666 3 18.999c-2 4.66699 -4.33301 14.334 -7 29.001
c-13.333 -1.33301 -23.666 -2 -30.999 -2h-19c-3.33301 0 -7.33301 1.33301 -12 4c-4.66699 -1.33301 -7 -2.66602 -7 -3.99902l-4 2c-13.333 -2.66699 -21 -4 -23 -4c-11.333 0 -17 24.667 -17 74v4c0 15.333 12.333 23 37 23c153.333 2.66699 248.666 4 285.999 4z
M182.001 150.995l1 -7l10 -2l1 4l-4 4l-2 2l-3 -1h-3zM181.001 163.995v-4l1 -2l3 -1l1 8z" />
    <glyph glyph-name="u" unicode="u" horiz-adv-x="414" 
d="M360 781c4.66699 -2.66699 7.33398 -9.66797 8.00098 -21.001l1 -37c0 -2.66699 -1 -6 -3 -10h3v-13c0 -1.33301 0.666992 -2 2 -2c-1.33301 -2.66699 -2 -4.66699 -2 -6l-3 -6c3.33301 -4.66699 5 -8.33398 5 -11.001c0 -4 -0.666992 -7.33301 -2 -10
c0 -6 0.666992 -10 2 -12c-1.33301 -43.333 -2 -77.333 -2 -102v-84c0 -1.33301 0.666992 -2 2 -2l-2 -4c0 -6.66699 0.666992 -17 2 -31c0 -4.66699 -0.666992 -8 -2 -10c1.33301 -44 2.66602 -67 3.99902 -69c-1.33301 -9.33301 -2 -17 -2 -23v-89
c0 -28 0.666992 -62.667 2 -104c0 -28.667 -12 -60 -36 -94c-32 -36 -75 -54 -129 -54c-56.667 0 -102.334 23.667 -137.001 71c-15.333 24.667 -24.333 55 -27 91c1.33301 116 2 197.333 2 244c0 23.333 -0.666992 65.333 -2 126c0 2 0.666992 4.33301 2 7
c-1.33301 14 -2 25 -2 33v133c0 1.33301 -0.666992 2 -2 2l2 4v17c0 1.33301 -0.666992 2 -2 2l2 4c-1.33301 14 -2 24.333 -2 31c0 16.667 7.66699 25 23 25h62c15.333 0 23 -8.33301 23 -25v-2c0 -62 0.666992 -109.667 2 -143c-1.33301 -30 -2 -74.333 -2 -133h2
c-1.33301 -10 -2.66602 -15 -3.99902 -15l2 -14c1.33301 -92.667 2 -144 2 -154c-2.66699 -9.33301 -4 -15 -4 -17c0 -115.333 7 -173 21 -173c6.66699 -9.33301 19 -14 37 -14h7c24 0 40.333 11.667 49 35l5 27c-1.33301 58 -2 106 -2 144v21c0 10.667 -1 23.667 -3 39l3 4
c-2 18 -3 32.667 -3 44v8c0 16.667 1.66699 47.334 5 92.001c1.33301 140.667 2 227.334 2 260.001c0 12 12.333 18 37 18c8 0 26 0.666992 54 2zM248 68.999l-2 -4c1.33301 -2.66699 2 -4.66699 2 -6h4v6c0 2.66699 -1.33301 4 -4 4zM110 100.999l-2 -6h4l1 1v5h-3z" />
    <glyph glyph-name="v" unicode="v" 
d="M391 769c0 -4.66699 -2.66699 -26.667 -8 -66c1.33301 -2.66699 2 -5 2 -7c-1.33301 -4 -2.66602 -6 -3.99902 -6l2 -11v-2c-6 -56.667 -11.667 -92.667 -17 -108v-27c0 -5.33301 -4.66699 -11.666 -14 -18.999c4.66699 -5.33301 7 -9.33301 7 -12
c-10.667 -68.667 -17.334 -122.334 -20.001 -161.001c-3.33301 -14 -8.33301 -24 -15 -30c-8 -102.667 -15.667 -161 -23 -175l2 -12l-19 -113c0 -2 0.666992 -3 2 -3c-3.33301 -9.33301 -6.33301 -14 -9 -14h-15c0 -4.66699 -15 -7.66699 -45 -9l-12 6
c0 -0.666992 -2.66699 -2.66699 -8 -6l-4 2c-1.33301 0 -7 -1.33301 -17 -4h-4c-7.33301 0 -19.333 0.666992 -36 2c-8 6.66699 -14.667 28.667 -20 66c-2.66699 24.667 -4 44 -4 58c0 -1.33301 -1 -2 -3 -2c0 1.33301 -0.666992 2 -2 2l2 11c-4 15.333 -8.66699 43 -14 83
c-7.33301 38.667 -12.333 72 -15 100l2 4c-4 0 -9.66699 37 -17 111l-24 155c1.33301 2.66699 2 4.66699 2 6c-3.33301 4 -7 25.667 -11 65c-5.33301 20.667 -8 34.334 -8 41.001l2 11c-1.33301 0 -2 0.666992 -2 2l2 13h-2c-3.33301 0 -7 12.333 -11 37
c0 15.333 11.333 23 34 23h16c2.66699 0 4.66699 0.333008 6 1s10 1 26 1c15.333 0 23 -7 23 -21l-2 -9c1.33301 -4 2.66602 -6 3.99902 -6l-2 -5v-2c4 -5.33301 6 -9.66602 6 -12.999l-2 -8c6.66699 -14.667 10 -29.667 10 -45l-3 -9c4.66699 0 8.33398 -20 11.001 -60
c3.33301 -12 7 -31.333 11 -58c24 -192.667 38.667 -304.667 44 -336c-0.666992 -8.66699 -4 -16.334 -10 -23.001v-2c6.66699 0 10 -4.33301 10 -13c1.33301 -26 4.66602 -39 9.99902 -39c2.66699 2 8.33398 32.333 17.001 91c4 1.33301 6 5.66602 6 12.999l-4 6
c15.333 100.667 23 158.667 23 174v6l6 9l-4 20c0 14.667 6.33301 60 19 136c2.66699 62.667 8 94 16 94c0.666992 66.667 7.66699 100 21 100h13l34 -8c-7.33301 3.33301 -11 6 -11 8h2c2 0 3 -0.666992 3 -2z" />
    <glyph glyph-name="w" unicode="w" horiz-adv-x="594" 
d="M325 783c18 0 26.9971 -18.332 26.9971 -54.999l19 -185c-1.33301 -7.33301 -2 -11.333 -2 -12c2.66699 -8 7.66699 -50.667 15 -128c4 -9.33301 6.66699 -25.333 8 -48c-1.33301 -8 -2 -14.333 -2 -19c10.667 -120.667 17.667 -181 21 -181h3
c11.333 116 18.333 178.333 21 187l-2 11v6c5.33301 40.667 10 61 14 61c-2.66699 16.667 -4 28 -4 34c11.333 146 22.666 250.667 33.999 314c5.33301 6 36 9.66699 92 11c8.66699 0 13 -4.33301 13 -13c-8 -37.333 -12 -59.333 -12 -66l3 -4
c-8.66699 -57.333 -13 -98.333 -13 -123c-6 0 -13.667 -62.333 -23 -187l-5 -2c0 4.66699 -1.33301 7 -4 7c-1.33301 -2.66699 -2 -5 -2 -7c1.33301 -2.66699 2 -4.66699 2 -6l4 2c0 -6 0.666992 -11.667 2 -17l-4 -2l2 -19c-6 -56.667 -11 -89.334 -15 -98.001
c0 -2.66699 1 -5.33398 3 -8.00098c-16 -150 -26.667 -230 -32 -240c-5.33301 -4 -14 -6 -26 -6h-91c-22.667 0 -34 11.333 -34 34c0 14.667 -2 35 -6 61l4 9c-5.33301 0 -9.66602 36 -12.999 108c-4 37.333 -7.33301 62 -10 74c1.33301 7.33301 2 14.333 2 21h-2l2 5
c-4 65.333 -7.66699 107.666 -11 126.999h-4c-5.33301 -60.667 -11.666 -106.667 -18.999 -138l2 -4l-15 -176c-5.33301 -75.333 -12.333 -113 -21 -113l-15 -2c-25.333 0 -45.666 -0.666992 -60.999 -2c-14 1.33301 -29 2 -45 2c-12.667 0 -19 13.667 -19 41h4v2
c-6.66699 0 -13.667 46 -21 138c-2.66699 9.33301 -7 35.333 -13 78c2 2.66699 3 6.33398 3 11.001c-3.33301 4.66699 -5 8.66699 -5 12v11h5v2c-8.66699 0 -16.667 46.667 -24 140c-14 113.333 -21 174 -21 182l2 9c-4.66699 0 -11.667 46.667 -21 140
c0 10 8.33301 16.333 25 19h60c16.667 0 25 -14.333 25 -43c2.66699 -59.333 16.334 -187.666 41.001 -384.999c-2 -8 -3 -12.333 -3 -13c5.33301 0 13.333 -61.667 24 -185h4c4 27.333 6.66699 41 8 41c0 1.33301 -0.666992 3.33301 -2 6
c11.333 154.667 28.333 339.667 51 555c2.66699 0 4 1.66699 4 5l-4 6c0 10 25.667 15 77 15z" />
    <glyph glyph-name="x" unicode="x" horiz-adv-x="410" 
d="M343 782l9.00293 0.00195312c16.667 -1.33301 25 -9 25 -23c-10 -27.333 -21.333 -67.333 -34 -120c-6.66699 -23.333 -13 -36.333 -19 -39l2 -9c-24.667 -96.667 -39.667 -145 -45 -145h-2l2 -6v-7c-4.66699 -4.66699 -7 -9.33398 -7 -14.001v-11
c3.33301 -4 6.33301 -15.667 9 -35l28 -95v-10l-2 -19c10.667 -6.66699 18 -17.334 22 -32.001v-2c-2 -2 -3 -4.66699 -3 -8c6 -2.66699 9 -7.66699 9 -15c-1.33301 -2.66699 -2 -4.66699 -2 -6c2.66699 0 4.66699 -8.33301 6 -25c5.33301 0 12.333 -19 21 -57
c12.667 -32.667 22 -62 28 -88c-4 -10 -10.333 -15 -19 -15h-66c-14.667 0 -23.334 15.667 -26.001 47v2h2c-12.667 24 -19 44.667 -19 62h2c-6.66699 8.66699 -12.334 27.667 -17.001 57c2 0 4 2 6 6v2c-12.667 6 -19 17.333 -19 34h6l3 6h-5c-5.33301 0 -11 13.667 -17 41
c-8.66699 28 -14.334 42.333 -17.001 43c-2.66699 0 -12.667 -31.333 -30 -94l-7 -17c-28.667 -118 -44.667 -178.667 -48 -182h-5l-6 -5v-2c-12.667 -2.66699 -30 -4 -52 -4h-25c-2.66699 0 -7 5 -13 15c0 5.33301 10 38.666 30 99.999c24.667 90 50.334 172 77.001 246
c1.33301 0 2 0.666992 2 2c0 3.33301 -0.666992 6.33301 -2 9c1.33301 6.66699 6.33301 17 15 31v2c-4.66699 0 -12.334 19.667 -23.001 59c-4 4 -6.33301 11 -7 21c2.66699 0 4 1.33301 4 4v3c-6 0 -10 11.667 -12 35c-1.33301 2.66699 -3 4 -5 4v4l3 4
c-6.66699 0 -11.667 10 -15 30h-2l2 4l-29 88c-10 34 -16.333 53.667 -19 59v5l4 7v6c-11.333 7.33301 -17 15.333 -17 24c3.33301 11.333 12 17 26 17h56c16 0 26.667 -16.333 32 -49c16.667 -55.333 34 -118.333 52 -189l12 -31h5l38 147
c4.66699 28.667 9.66699 46.334 15 53.001c-2 0 -3 0.666992 -3 2c2.66699 0 5.66699 2.66699 9 8c0 3.33301 -1.33301 5 -4 5c8 38.667 19.667 58 35 58h7zM265.003 637.002h3l-3 4v-4z" />
    <glyph glyph-name="y" unicode="y" horiz-adv-x="390" 
d="M350 781c16.667 -1.33301 24.999 -7.33203 24.999 -17.999c-25.333 -108 -42.666 -178 -51.999 -210c-2 0 -3 -1 -3 -3v-8c0 -1.33301 1 -2 3 -2c0 -6 -18.333 -83 -55 -231l-10 -58v-235c0 -15.333 -9.66699 -23 -29 -23h-10c-11.333 0 -24.666 0.666992 -39.999 2
c-2.66699 -1.33301 -5.33398 -2 -8.00098 -2c-12.667 0 -19 24.333 -19 73c-1.33301 93.333 -2 153.666 -2 180.999c0 4.66699 -27 112 -81 322c-30.667 118 -46 181 -46 189c0 12.667 8.33301 19 25 19h52c18 0 28.333 -16 31 -48c0 -0.666992 21 -101.667 63 -303l-3 -13
c4.66699 -2.66699 9 -4 13 -4c22 126 42.667 237 62 333c0 26 11.333 39 34 39h50zM210.999 29.001h4l-4 3v-3zM234.999 95.001l3 -1v5h-2v-2h-1v-2z" />
    <glyph glyph-name="z" unicode="z" horiz-adv-x="333" 
d="M287 782c14 0 21 -8.33203 21 -24.999v-27c0 -8 0.666992 -19 2 -33c-5.33301 -30 -22.666 -93 -51.999 -189c-16.667 -56 -27 -84 -31 -84h-2c0 -1.33301 0.666992 -3.33301 2 -6c-1.33301 -10 -3.33301 -17 -6 -21v-2c0 -1.33301 0.666992 -2 2 -2
c-2.66699 -13.333 -8.33398 -24.333 -17.001 -33c0 -1.33301 0.666992 -3.33301 2 -6c-2 -12.667 -4.66699 -19 -8 -19c-2.66699 1.33301 -4.66699 2 -6 2v-4h6v-2c-37.333 -132 -58 -198 -62 -198l-5 -6c3.33301 -3.33301 5 -6 5 -8c-3.33301 -9.33301 -5 -14.333 -5 -15
l5 -2h14c34.667 0 82.667 -0.666992 144 -2c10.667 0 16 -23.667 16 -71c0 -19.333 -7.66699 -29 -23 -29c-63.333 1.33301 -112.333 2 -147 2h-50c-7.33301 0 -11 1.33301 -11 4c-4.66699 -2.66699 -10 -4 -16 -4h-21c-15.333 0 -23 6.33301 -23 19
c0 4.66699 0.666992 8 2 10c-1.33301 12 -2 21.667 -2 29v13c0 4.66699 0.666992 11 2 19c-1.33301 2 -2 4.66699 -2 8c54 177.333 93.667 298.666 119 363.999h-2l60 214v2h-38c-28 0 -70 -0.666992 -126 -2c-8 0 -13 7.66699 -15 23v56c2 12.667 8.33301 19 19 19h12
c60 0 135 1.33301 225 4c7.33301 1.33301 11.333 2 12 2zM25 736.001v-4h6v4h-6zM243 26.001h-4v-4h4v4z" />
    <glyph glyph-name="braceleft" unicode="{" horiz-adv-x="309" 
d="M117 95l-2.00293 3.99609l2 4c-1.33301 4.66699 -2.66602 7 -3.99902 7c0 1.33301 2.66699 5.33301 8 12v2c-5.33301 6 -8 11.667 -8 17v41c0 16.667 2 25 6 25v2c-4 0 -6 3.66699 -6 11l-5 70c-9.33301 26.667 -27.666 46.334 -54.999 59.001c-14 1.33301 -21 7 -21 17
v76c0 2 14 10 42 24c26 15.333 39 52 39 110v15c0 14 -1 31.667 -3 53l3 10c-2 8.66699 -3 19.334 -3 32.001c4.66699 15.333 7 26 7 32c-2.66699 4.66699 -4 8.33398 -4 11.001c0 52 34.333 110.667 103 176h9c38 -34 57 -54.667 57 -62v-2c0 -6 -18.333 -30 -55 -72
c-8 -11.333 -14.333 -27.666 -19 -48.999l-2 -2c2.66699 -0.666992 4 -2 4 -4v-2c0 -13.333 0.666992 -25.333 2 -36c-0.666992 -16 -2 -24 -4 -24c2.66699 -4.66699 4 -11 4 -19l-2 -55c0 -6 0.666992 -10.333 2 -13c-1.33301 -6.66699 -2.66602 -10 -3.99902 -10
c1.33301 -2.66699 2 -5 2 -7c0 -54.667 -25.333 -104 -76 -148v-4l17 -7c40.667 -43.333 61 -85.666 61 -126.999c-5.33301 -7.33301 -8 -14.333 -8 -21c4 0 7.33301 -24 10 -72c-1.33301 -11.333 -2 -22.666 -2 -33.999l-2 -15l2 -8c0 -3.33301 -0.666992 -6.33301 -2 -9
c1.33301 -9.33301 2 -17 2 -23l-2 -15c0 -30 20.667 -66 62 -108l14 -23c0 -10 -18.333 -30.667 -55 -62c-1.33301 0 -3.33301 -0.666992 -6 -2c-12.667 3.33301 -39 31.666 -79 84.999c-10.667 17.333 -16 30.666 -16 39.999v2c-10 6 -15 35.667 -15 89z" />
    <glyph glyph-name="bar" unicode="|" horiz-adv-x="260" 
d="M105 777l56.001 -0.00390625c8 0 12.667 -4.33301 14 -13c4.66699 -1.33301 7 -5.66602 7 -12.999v-17c0 -1.33301 -0.666992 -2 -2 -2l2 -4v-21c-6 -6.66699 -9 -10.334 -9 -11.001v-2c6 -6 9 -11.667 9 -17v-40c0 -8 -0.666992 -14.333 -2 -19
c1.33301 -8 2 -15.333 2 -22v-42c0 -6 0.666992 -13.667 2 -23l-2 -5c1.33301 -9.33301 2.66602 -34 3.99902 -74c-1.33301 -15.333 -2 -28.666 -2 -39.999c-5.33301 -1.33301 -8.33301 -2 -9 -2c0 -1.33301 3 -5.66602 9 -12.999v-36c0 -6 0.666992 -11.667 2 -17l-4 -53
c2.66699 -5.33301 4 -13 4 -23v-7c0 -7.33301 -0.666992 -17 -2 -29l2 -5c0 -4 -0.666992 -6 -2 -6c1.33301 -23.333 2 -41 2 -53v-106c0 -6 -0.666992 -13.667 -2 -23c1.33301 -1.33301 2 -7 2 -17v-9c0 -15.333 -10 -23 -30 -23h-48c-16 2 -24 7 -24 15v195l2 13l-4 21
c2 32.667 4 49 6 49c-2.66699 4.66699 -4 10.334 -4 17.001v91c0 7.33301 0.666992 13.666 2 18.999c-1.33301 7.33301 -2 14.333 -2 21c0 20.667 -0.666992 64.334 -2 131.001c2.66699 4.66699 4 8.33398 4 11.001c-2 0 -4 4.33301 -6 13c1.33301 2 2 4.66699 2 8
s-0.666992 6.33301 -2 9l4 55c-1.33301 12 -2 28.333 -2 49c6 9.33301 9 16.333 9 21c0 1.33301 -3 5.33301 -9 12v3c2.66699 3.33301 4 6 4 8l-4 9c0 9.33301 7.66699 15 23 17z" />
    <glyph glyph-name="braceright" unicode="}" horiz-adv-x="309" 
d="M75 900l8.99902 -0.00195312c18 -17.333 28.667 -30 32 -38c35.333 -32 53 -55.333 53 -70c10.667 -2.66699 17.667 -33 21 -91v-40c-1.33301 -10 -2 -15.667 -2 -17l2 -15l-2 -15l2 -11l-4 -8c2.66699 -32.667 5.33398 -55.334 8.00098 -68.001l-2 -4
c11.333 -29.333 29 -50 53 -62c20 -4 30 -11 30 -21v-15c0 -7.33301 -0.666992 -13.666 -2 -18.999c1.33301 -7.33301 2 -14.333 2 -21v-15c0 -10 -10.667 -17 -32 -21c-31.333 -28 -47 -49.333 -47 -64c-2.66699 -1.33301 -4.66699 -2 -6 -2c0.666992 -2.66699 2 -4 4 -4
l-4 -87c1.33301 -2.66699 2 -4.66699 2 -6c0 -3.33301 -0.666992 -6.33301 -2 -9c1.33301 -12 2 -21.667 2 -29v-45c1.33301 -4 2 -13 2 -27c0 -26.667 -5 -51 -15 -73v-4c0 -19.333 -29 -61 -87 -125l-10 -2c-7.33301 0 -26.666 18.333 -57.999 55
c-1.33301 2.66699 -2 4.66699 -2 6c0 9.33301 20.667 37 62 83c3.33301 11.333 6.66602 17 9.99902 17v34c0 6 1 13.667 3 23c-3.33301 4.66699 -5 8.33398 -5 11.001c0 4.66699 0.666992 8.33398 2 11.001l-2 21c0 6.66699 0.666992 17.334 2 32.001
c-1.33301 7.33301 -2 15 -2 23c3.33301 4.66699 5 8 5 10c-3.33301 4.66699 -5 9 -5 13v30c0 7.33301 2.33301 15 7 23l-5 2c0 48 24.333 94 73 138v2c-48.667 45.333 -73.667 92 -75 140l2 4v3c0 1.33301 -1.33301 6.66602 -4 15.999v126c0 20.667 -2.66699 43 -8 67
c1.33301 0 2 1 2 3c-6.66699 0 -28.667 22.333 -66 67l-2 11c10 18 29.667 37 59 57z" />
    <glyph glyph-name="asciitilde" unicode="~" horiz-adv-x="399" 
d="M168 941l79 -19h15c1.33301 0 13 2.66699 35 8c2.66699 -0.666992 5.33398 -4 8.00098 -10c0 -1.33301 -0.666992 -3.33301 -2 -6c1.33301 -10 2 -17.667 2 -23v-13c0 -18 -15 -29 -45 -33h-15l-73 17h-12c-8.66699 0 -21.334 -3 -38.001 -9h-2
c-5.33301 2.66699 -8 7.66699 -8 15v41c5.33301 21.333 24 32 56 32z" />
    <glyph glyph-name="exclamdown" unicode="&#xa1;" horiz-adv-x="220" 
d="M135 0h-46c-23.333 0 -35 7.66699 -35 23l4 123l-2 4c1.33301 9.33301 2 17 2 23v27c2.66699 20 4 30.333 4 31c-1.33301 0 -2 0.666992 -2 2c4 0 8 4 12 12c0 2.66699 -4 7 -12 13c1.33301 126 3.33301 189 6 189c0 1.33301 -0.666992 3.33301 -2 6
c2 46 4.66699 69 8 69l-4 2l2 15v4c0 2.66699 -0.666992 5.33398 -2 8.00098c0 14 17.333 21 52 21h19c8.66699 -2.66699 15 -8.33398 19 -17.001l-3 -4v-31c0 -4.66699 -2 -9.66699 -6 -15v-6h4v-10c3.33301 0 5 -4.33301 5 -13c0 -18 1.33301 -78.333 4 -181l-2 -8
c2.66699 -5.33301 4 -11 4 -17v-14c0 -5.33301 -3 -10.333 -9 -15v-2c5.33301 0 9 -4 11 -12c0 -3.33301 -0.666992 -5 -2 -5l2 -24v-11c2.66699 -93.333 4 -145.333 4 -156v-6c0 -16.667 -11.667 -25 -35 -25zM81 672c-16.667 0 -25 8.33301 -25 25v62
c0 15.333 15 23 45 23h38c16.667 0 25 -7.66699 25 -23v-69c0 -12 -11.333 -18 -34 -18h-49zM126 62l2 2l-5 1l1 -2h1v-1h1zM75 702l1 -1v-1l1 -1h2v3l-2 2l-2 -1v-1z" />
    <glyph glyph-name="cent" unicode="&#xa2;" horiz-adv-x="384" 
d="M217 778c16.667 0 25.001 -7.00098 25.001 -21.001v-38c0 -5.33301 -2.66699 -11.666 -8 -18.999v-2c5.33301 -5.33301 8 -10.333 8 -15v-24l55 -27c22 -17.333 35.667 -35 41 -53v-2l-3 -21c8 0 13.667 -15.667 17 -47c0 -1.33301 -0.666992 -3.33301 -2 -6
c3.33301 -12.667 5 -20.667 5 -24c0 -15.333 -8 -23 -24 -23h-8l-11 2v13h-4l-13 -11h-2l-8 2l-9 -6h-6c-11.333 0 -17 10.667 -17 32v23l-2 4h2c-8.66699 23.333 -20.667 38.333 -36 45l-11 4l-34 -17c-11.333 -8.66699 -17 -32.667 -17 -72v-110
c0 -1.33301 -0.666992 -2 -2 -2l2 -5v-17h-2l-4 -10h2c4 -1.33301 6 -5.66602 6 -12.999v-6c0 -10 -0.666992 -15.667 -2 -17c1.33301 -10 2 -18 2 -24v-61c0 -6 0.666992 -13.667 2 -23l-6 -13v-2c2.66699 -4.66699 7 -23 13 -55c11.333 -14.667 21.333 -22 30 -22v-2l12 2
c24 0 40.333 15 49 45c0 1.33301 0.666992 2 2 2l4 -2l2 4v2c-5.33301 6 -8 11.667 -8 17c0 8 2.66699 13 8 15h3c2 0 14.667 1.33301 38 4h29c13.333 0 20 -9.66699 20 -29v-9c0 -10.667 -1.66699 -21.334 -5 -32.001v-2c-7.33301 -34.667 -20 -61.334 -38 -80.001
c-14.667 -10.667 -35.667 -22.667 -63 -36v-96c0 -15.333 -8 -23 -24 -23h-6c-6 0 -11.667 1.33301 -17 4c-4.66699 -2.66699 -8.33398 -4 -11.001 -4c-9.33301 0 -16.333 4.33301 -21 13v4l6 8c-1.33301 2.66699 -2 5.66699 -2 9c1.33301 0 2 0.666992 2 2
c-5.33301 0 -8 2 -8 6c2 0 4 2.33301 6 7c-4 5.33301 -6 10.333 -6 15v57c-9.33301 0 -20 4.33301 -32 13c-20 0 -44.667 26.667 -74 80c-7.33301 20.667 -12.333 50.334 -15 89.001l6 11c0 2 -2 4 -6 6l2 4l-2 30c0 4 0.666992 9 2 15c-1.33301 9.33301 -2 18.333 -2 27v7
c0 25.333 -0.333008 46.666 -1 63.999s-1 30 -1 38v4c0 24 2.66699 38 8 42c-4 5.33301 -6 10.333 -6 15v19c0 4.66699 -0.666992 8.33398 -2 11.001c0 56 12 99 36 129c6 0 9.66699 5 11 15c18.667 18 42 31.333 70 40v98c0 16.667 14 25 42 25h13zM193.001 -95.001v-2h5v2
h-5z" />
    <glyph glyph-name="sterling" unicode="&#xa3;" horiz-adv-x="420" 
d="M207 793l14.999 0.000976562c12.667 0 21.667 -2 27 -6c1.33301 0 3.33301 0.666992 6 2c2.66699 0 11.334 -4.33301 26.001 -13l4 3c26.667 -12.667 48.667 -33.334 66 -62.001c15.333 -32 23 -58 23 -78v-49c-2 -17.333 -8.33301 -26 -19 -26
c-36.667 2 -61.334 3 -74.001 3c-2 0 -5.66699 3.33301 -11 10h-2v6l2 5v6l-6 9v21c0 3.33301 -0.666992 6 -2 8l6 11v2c-8 0 -13 11.333 -15 34l-17 13v-3l7 -4h-4c-5.33301 4.66699 -15.333 7 -30 7h-2c-18.667 0 -34.334 -6.33301 -47.001 -19h-4l-7 -11
c2 -4 3.66699 -6 5 -6l-2 -22v-19c0 -2.66699 -1.66699 -4 -5 -4l5 -44c10 -34 17 -52.667 21 -56c24 -58.667 40.333 -108 49 -148h23c45.333 0 68 -3.66699 68 -11c0.666992 6 2.66699 9 6 9c15.333 0 23 -9.33301 23 -28v-53c0 -7.33301 -4 -13.666 -12 -18.999
c-3.33301 0 -8.33301 -0.666992 -15 -2h-91c-3.33301 0 -7.66602 -14 -12.999 -42h-2l-7 -24c-12.667 -40.667 -21 -61 -25 -61h-2v-13c-6 -7.33301 -9 -15 -9 -23h30c4 0 9.66699 -2 17 -6l9 4c7.33301 0 17 -0.666992 29 -2l2 4l32 -4
c4.66699 1.33301 7 2.66602 7 3.99902l4 -2h15l10 2c0 -2.66699 2.33301 -4 7 -4c4.66699 2.66699 8.66699 4 12 4h13c15.333 0 23 -10.667 23 -32v-6c0 -6.66699 -0.666992 -13.667 -2 -21c1.33301 -5.33301 2 -12 2 -20c0 -8.66699 -2.66699 -15 -8 -19l-11 7h-2l-6 -5h-2
l-9 7h-4c0 -7.33301 -3 -11 -9 -11c-4 2.66699 -7.33301 4 -10 4c0 -2 -5 -4 -15 -6l-4 2h-32c-8 0 -30.667 -0.666992 -68 -2c-1.33301 0 -2 0.666992 -2 2l-4 -2l-15 2l-9 -2l-4 2l-10 -2c-3.33301 1.33301 -5.66602 2 -6.99902 2c-4.66699 -2.66699 -8.66699 -4 -12 -4
c-4.66699 1.33301 -7 2.66602 -7 3.99902l-15 -2l-46 4c-7.33301 -4 -12.333 -6 -15 -6c-10 3.33301 -15 10.333 -15 21c0 4.66699 0.666992 9.66699 2 15c-1.33301 12.667 -2 23.334 -2 32.001v15c3.33301 22.667 10.333 34 21 34v4l-2 4l30 51c0 3.33301 3.33301 9 10 17
c0 10 2.33301 15 7 15c0 -1.33301 0.666992 -2 2 -2v2c-2.66699 0 -4 1.33301 -4 4c0 10.667 2.66699 17 8 19l4 4c0 3.33301 -0.666992 5 -2 5c0 2 5 8.33301 15 19l-28 10c-9.33301 -1.33301 -17 -2 -23 -2h-4c-12.667 0 -19 7.66699 -19 23v3l2 4h-2c0 1.33301 2 7 6 17
c-3.33301 0 -5.33301 2.66699 -6 8c0 30 3.33301 45 10 45c26 1.33301 42.333 2 49 2v2c0 12 -19 68.667 -57 170c-1.33301 13.333 -5 31 -11 53l2 14v28c0 1.33301 -0.666992 2 -2 2l2 4c0 1.33301 -0.666992 7 -2 17c10.667 48 22.667 72 36 72
c0 10.667 8.66699 23.667 26 39h2c0 -3.33301 0.666992 -5 2 -5l2 5v4c21.333 18 54 27 98 27z" />
    <glyph glyph-name="yen" unicode="&#xa5;" horiz-adv-x="450" 
d="M124 783l17.001 -0.00195312c14.667 0 24 -16.333 28 -49l-4 -36h8c8.66699 -38.667 15.667 -79.667 21 -123c-1.33301 -2.66699 -2 -4.66699 -2 -6c3.33301 0 7.66602 -17 12.999 -51l-2 -4c3.33301 0 11 -34 23 -102h2c6.66699 32.667 11 49 13 49h4v4l-4 -2l-4 2
l10 44c0 1.33301 -0.666992 2 -2 2l11 60c8 52 17.667 103.667 29 155h3l2 8c2 31.333 9 47 21 47l13 -2c11.333 2.66699 23.333 4 36 4h12c22.667 0 34 -8 34 -24c-8 -36.667 -14.333 -55 -19 -55l4 -8l-10 -28l2 -4c-3.33301 -6 -10.333 -37 -21 -93
c-22.667 -82.667 -39 -154 -49 -214l4 -2h32c1.33301 0 2 -1 2 -3l4 3h9c20 0 30 -8.66699 30 -26c1.33301 -28 2 -47 2 -57c0 -7.33301 -3.66699 -13 -11 -17h-55c-28 0 -42 -4.33301 -42 -13v-2c1.33301 -12 2 -22 2 -30v-14c0 -3.33301 1.33301 -5 4 -5
c16.667 1.33301 29.334 2 38.001 2l11 -2c2 1.33301 10.333 3 25 5c20 -5.33301 30 -12 30 -20h-2l3 -17c-0.666992 -11.333 -1 -17.666 -1 -18.999v-23c0 -12.667 -10 -19 -30 -19h-27l-15 2v4c-9.33301 -1.33301 -22 -4.66602 -38 -9.99902
c0 -4.66699 -1 -8.33398 -3 -11.001l5 -34c-1.33301 -7.33301 -2 -14.333 -2 -21l2 -15c0 -14 -11.333 -21 -34 -21l-4 2l-30 -2c-2 0 -13.333 0.666992 -34 2v-2c-12.667 2.66699 -19 9.66699 -19 21v62l4 15l-8 4l-5 2l-38 -4l-19 2c-9.33301 -1.33301 -17 -2 -23 -2
c-14 1.33301 -21 8.33301 -21 21c-2 20.667 -3 39 -3 55c0 16.667 8.66699 25 26 25l15 -2h23c6.66699 0 13.667 -0.666992 21 -2c5.33301 1.33301 11.666 2 18.999 2h9v28c-1.33301 8.66699 -2 19.334 -2 32.001h-55c-4 0 -8.33301 1.33301 -13 4
c-4.66699 -2.66699 -9 -4 -13 -4h-8c-8 0 -13.667 2.66699 -17 8v2l-2 21l-3 11c0 2 1 9 3 21c0 1.33301 -1 2 -3 2c0 24 5.66699 36 17 36c33.333 2 56 3 68 3v2c0 8.66699 -6.33301 36 -19 82l-21 91v3c-6 16 -10.333 32 -13 48c-12.667 42 -26 102.333 -40 181
c0 10.667 8.33301 17 25 19h26c6 1.33301 14.333 2 25 2z" />
    <glyph glyph-name="brokenbar" unicode="&#xa6;" horiz-adv-x="260" 
d="M111 785h47.999c8.66699 0 15 -6 19 -18l4 -298c0 -15.333 -14.667 -23 -44 -23h-21c-6.66699 0 -10 1.66699 -10 5l-8 -5c-10 3.33301 -15 8.33301 -15 15c-1.33301 63.333 -2.66602 165.333 -3.99902 306c0 12 10.333 18 31 18zM104.999 330h56
c15.333 0 23 -12.667 23 -38v-106c0 -7.33301 -0.666992 -13.333 -2 -18c1.33301 -7.33301 2 -14.333 2 -21v-73c0 -12.667 0.666992 -30.667 2 -54c0 -15.333 -9 -23 -27 -23c-10.667 0 -30 -0.666992 -58 -2c-10 3.33301 -15 11.666 -15 24.999v44
c0 60.667 -0.666992 138.334 -2 233.001c0 22 7 33 21 33z" />
    <glyph glyph-name="section" unicode="&#xa7;" horiz-adv-x="450" 
d="M204 815l14.998 -2c2.66699 1.33301 5 2 7 2c0 -2 2 -4 6 -6l11 2l42 -9c38.667 -14 66.334 -36.333 83.001 -67l12 -36c-2.66699 -4.66699 -4 -9 -4 -13c7.33301 0 11 -12 11 -36c-1.33301 -14 -7.66602 -21 -18.999 -21h-66c-15.333 0 -23 6.33301 -23 19v34
c-6.66699 12.667 -13.667 20.5 -21 23.5s-20.333 6.16699 -39 9.5c-38 -5.33301 -58.667 -20 -62 -44c0 -16.667 1.66699 -28.167 5 -34.5s19 -23.833 47 -52.5c60 -42 98.667 -70.333 116 -85c42.667 -39.333 64 -78.666 64 -117.999v-11c-3.33301 -49.333 -12 -77 -26 -83
c-2.66699 1.33301 -4.66699 2 -6 2c0 -2.66699 -1.33301 -9.66699 -4 -21v-2c0 -2.66699 -4.33301 -9.66699 -13 -21c32.667 -38.667 49 -78.334 49 -119.001c-4 -45.333 -11 -68 -21 -68v-4l4 -6c-3.33301 -10 -8.33301 -15 -15 -15v-11
c-30.667 -38 -72.334 -57 -125.001 -57l-15 4l-15 -4c-44.667 0 -82.667 22 -114 66l-7 12c-12 22 -19 45.333 -21 70v15c0 16 10 24 30 24h38c25.333 0 38 -7.33301 38 -22c0 -32.667 9.33301 -53.667 28 -63c16 -2.66699 27.333 -4 34 -4l21 2c1.33301 -2.66699 2 -5 2 -7
h4c0 7.33301 6.33301 18.666 19 33.999c3.33301 12.667 5 22 5 28v27c-5.33301 27.333 -40 61.333 -104 102c0 4 -6.33301 7.66699 -19 11c-24 16 -40.333 30 -49 42c-16 8.66699 -31.667 30.667 -47 66c-2.66699 18 -4 28.667 -4 32c0 55.333 16.333 100.333 49 135v2
c-32.667 36.667 -49 70 -49 100v23l4 7c-1.33301 4 -2.66602 6 -3.99902 6c8.66699 38.667 22.667 70.334 42 95.001c34 30 67.333 45 100 45c0 1.33301 2 2 6 2zM159.998 457l-11.002 -26.999c0.666992 -12.667 4.33398 -24.334 11.001 -35.001
c2.66699 0 11.667 -12 27 -36c40.667 -34 65 -51 73 -51c4.66699 1.33301 11.667 12.666 21 33.999c2 8 3 14 3 18v26c-5.33301 28.667 -36.666 59.334 -93.999 92.001h-3c-2 0 -10.333 -7 -25 -21h-2z" />
    <glyph glyph-name="dieresis" unicode="&#xa8;" horiz-adv-x="400" 
d="M274 941h41c16.667 0 25 -14 25 -42v-35c0 -16.667 -13.667 -25 -41 -25h-27c-21.333 0 -32 8.33301 -32 25c0 50 4.33301 75 13 75zM124 939l54 0.000976562c12.667 0 19 -7.66699 19 -23v-48c0 -2.66699 0.666992 -5.33398 2 -8.00098c0 -15.333 -17.333 -23 -52 -23
h-25c-15.333 0 -23 15.333 -23 46v35c0 14 8.33301 21 25 21zM270 909.001h2l4 2l-2 1l-1 -1h-3v-2z" />
    <glyph glyph-name="copyright" unicode="&#xa9;" horiz-adv-x="910" 
d="M469 611c31.333 0 60.001 -16.668 86.001 -50.001c12 -26 18 -55.667 18 -89c0 -14 -11 -21 -33 -21h-15c-14.667 0 -22 11.667 -22 35c0 36 -12.667 54 -38 54h-12c-26.667 0 -40 -15.333 -40 -46v-89c0 -28 1.33301 -46 4 -54c-1.33301 -7.33301 -2 -13.666 -2 -18.999
c0 -15.333 0.666992 -35.333 2 -60c-2.66699 -6 -4 -10.333 -4 -13c13.333 -18 26.666 -27 39.999 -27h16c22.667 6 34 19.333 34 40v27l-3 12c0 12 7.66699 18.333 23 19h29c15.333 0 23 -11 23 -33l-2 -4v-19c0 -18.667 -9.66699 -43.667 -29 -75
c-22 -24.667 -51.667 -37 -89 -37c-42 0 -76 22 -102 66c-6 18.667 -9.66699 34 -11 46c0 4.66699 0.666992 16.334 2 35.001c-1.33301 18 -2 32.667 -2 44h-2l2 4v50c0 5.33301 -0.666992 11.666 -2 18.999l2 4c-2.66699 32 -4 53.333 -4 64c0 48 25 84.333 75 109
c9.33301 4 28 6.66699 56 8zM444.001 775.999c2 0 6.00098 -1.33203 12.001 -3.99902c10 1.33301 15.667 2 17 2c63.333 -5.33301 127.666 -26.666 192.999 -63.999c38 -29.333 77 -72.333 117 -129c16 -24.667 28.333 -48.334 37 -71.001l-2 -4v-2
c14 -26.667 21 -67 21 -121v-8c0 -4 -1.33301 -8.33301 -4 -13c2.66699 -4 4 -8.66699 4 -14c-8 -65.333 -21.333 -115.333 -40 -150c-17.333 -35.333 -49 -75 -95 -119c-12 -14 -53.667 -36 -125 -66c-44.667 -14 -83.667 -21 -117 -21c-176 0 -298.667 84 -368 252
c1.33301 2 2 4.66699 2 8c-19.333 26.667 -30.333 65.667 -33 117l2 9c0 0.666992 -0.666992 4.66699 -2 12c0 121.333 55.333 225.666 166 312.999c72 44.667 131 67 177 67c0 2 12.667 4 38 6zM350.002 699c0 6 -0.667969 8.99805 -2.00098 8.99805
c-4 -1.33301 -18 -10.666 -42 -27.999c-64 -34 -115.333 -85 -154 -153c-20.667 -43.333 -31 -93 -31 -149c0 -38 8.33301 -79.333 25 -124c4 -4 17.333 -25.333 40 -64c51.333 -58.667 93.666 -96.334 126.999 -113.001s89.333 -25 168 -25c29.333 4 49.333 8.33301 60 13
v4c-0.666992 0 -4.66699 1.33301 -12 4v2h6c14.667 -2.66699 24.334 -4 29.001 -4c10.667 0 31.667 7 63 21l10 6l8 8c66 56.667 105.667 110.334 119 161.001l19 70l-4 94h2c-16 62.667 -37.667 111 -65 145c-9.33301 14 -24.666 33 -45.999 57
c0 9.33301 -1.33301 14 -4 14s-4 -1.33301 -4 -4l4 -6h-2c-42.667 34.667 -89.667 58.334 -141 71.001c-30.667 5.33301 -51.667 8 -63 8c-45.333 0 -82 -5.66699 -110 -17z" />
    <glyph glyph-name="ordfeminine" unicode="&#xaa;" horiz-adv-x="299" 
d="M175 778c17.333 0 28.335 -29.001 33.002 -87.001c2.66699 -7.33301 13 -62 31 -164c-2.66699 -12 -4 -19 -4 -21c4.66699 -4 11 -31 19 -81v-4l-2 -4c4.66699 0 11 -29.333 19 -88c0 -12.667 -10.667 -19 -32 -19h-12c-20.667 0 -31 6.33301 -31 19l2 4v4
c-2.66699 2.66699 -8.33398 31.334 -17.001 86.001c-1.33301 0 -2 0.666992 -2 2c-22.667 -1.33301 -40 -2 -52 -2h-12c-4 0 -9.66699 -35.333 -17 -106c-6 -10 -14.333 -15 -25 -15h-17c-15.333 0 -26.333 5 -33 15c5.33301 40.667 11.666 65.667 18.999 75v6h-6
c23.333 184 38.333 288.667 45 314c0 42.667 9.66699 64 29 64h38c4.66699 0 11 -0.666992 19 -2zM142.002 657.999c-3.33301 -6.66699 -10.333 -62.333 -21 -167c1.33301 0 2 -0.666992 2 -2l14 2h30l4 2c-16 106.667 -25.667 161.667 -29 165zM210.002 254l4.00195 -2
c18.667 1.33301 34 2 46 2c11.333 0 17 -18 17 -54c-2.66699 -16.667 -8.33398 -25 -17.001 -25c-80.667 -2.66699 -146.334 -4 -197.001 -4v-2l-5 2h-20c-1.33301 0 -2 -0.666992 -2 -2c-7.33301 0 -12.333 5 -15 15l2 8c-1.33301 14 -2 25 -2 33
c1.33301 14 7.66602 21 18.999 21h8c18.667 0 60.334 2 125.001 6h29c3.33301 0 6 0.666992 8 2z" />
    <glyph glyph-name="guillemotleft" unicode="&#xab;" horiz-adv-x="426" 
d="M224 578l-1.99902 -11.001l2 -15c-1.33301 -18 -2 -28.667 -2 -32c0 -11.333 -17 -30.333 -51 -57l-25 -23c-30 -28.667 -45 -43.667 -45 -45l47 -49c50.667 -43.333 76 -70 76 -80v-36c0 -34 -4.33301 -51 -13 -51c-24.667 24 -42.334 39.667 -53.001 47
c0 1.33301 0.666992 3.33301 2 6v4c-13.333 0 -47 28.333 -101 85v2l-2 2c-11.333 10.667 -17 23.334 -17 38.001v49l2 21c-1.33301 0 -2 1.66699 -2 5l2 10c8.66699 14.667 58 60.667 148 138c10 12.667 17.667 19 23 19c7.33301 0 11 -9 11 -27zM386.001 577.999
l-1.99902 -11.001l2 -15c-1.33301 -18 -2 -28.667 -2 -32c0 -11.333 -17 -30.333 -51 -57l-25 -23c-30 -28.667 -45 -43.667 -45 -45l47 -49c50.667 -43.333 76 -70 76 -80v-36c0 -34 -4.33301 -51 -13 -51c-24.667 24 -42.334 39.667 -53.001 47
c0 1.33301 0.666992 3.33301 2 6v4c-13.333 0 -47 28.333 -101 85v2l-2 2c-11.333 10.667 -17 23.334 -17 38.001v49l2 21c-1.33301 0 -2 1.66699 -2 5l2 10c8.66699 14.667 58 60.667 148 138c10 12.667 17.667 19 23 19c7.33301 0 11 -9 11 -27z" />
    <glyph glyph-name="registered" unicode="&#xae;" horiz-adv-x="910" 
d="M444 776c2 0 6.00098 -1.33203 12.001 -3.99902c10 1.33301 15.667 2 17 2c63.333 -5.33301 127.666 -26.666 192.999 -63.999c38 -29.333 77 -72.333 117 -129c16 -24.667 28.333 -48.334 37 -71.001l-2 -4v-2c14 -26.667 21 -67 21 -121v-8
c0 -4 -1.33301 -8.33301 -4 -13c2.66699 -4 4 -8.66699 4 -14c-8 -65.333 -21.333 -115.333 -40 -150c-17.333 -35.333 -49 -75 -95 -119c-12 -14 -53.667 -36 -125 -66c-44.667 -14 -83.667 -21 -117 -21c-176 0 -298.667 84 -368 252c1.33301 2 2 4.66699 2 8
c-19.333 26.667 -30.333 65.667 -33 117l2 9c0 0.666992 -0.666992 4.66699 -2 12c0 121.333 55.333 225.666 166 312.999c72 44.667 131 67 177 67c0 2 12.667 4 38 6zM350.001 699.001c0 6 -0.667969 8.99805 -2.00098 8.99805c-4 -1.33301 -18 -10.666 -42 -27.999
c-64 -34 -115.333 -85 -154 -153c-20.667 -43.333 -31 -93 -31 -149c0 -38 8.33301 -78.667 25 -122v-2c4 -4 17.333 -25.333 40 -64c51.333 -58.667 93.666 -96.334 126.999 -113.001s89.333 -25 168 -25c29.333 4 49.333 8.33301 60 13v4
c-0.666992 0 -4.66699 1.33301 -12 4v2h6c14.667 -2.66699 24.334 -4 29.001 -4c10.667 0 31.667 7 63 21l10 6l8 8c66 56.667 105.667 110.334 119 161.001l19 70l-4 94h2c-16 62.667 -37.667 111 -65 145c-9.33301 14 -24.666 33 -45.999 57c0 9.33301 -1.33301 14 -4 14
s-4 -1.33301 -4 -4l4 -6h-2c-42.667 34.667 -89.667 58.334 -141 71.001c-30.667 5.33301 -51.667 8 -63 8c-45.333 0 -82 -5.66699 -110 -17zM358 611.999c3.33301 0 5 -0.666992 5 -2c20.667 1.33301 35.667 2 45 2h40c82 0 123 -43.667 123 -131
c0 -17.333 -1.33301 -35 -4 -53c-6 -27.333 -27 -52 -63 -74c-2.66699 0 -4 -2 -4 -6c51.333 -100.667 77 -155 77 -163v-2c0 -9.33301 -9.66699 -14 -29 -14h-23c-22.667 0 -45 37.333 -67 112c-20 38.667 -31 58 -33 58h-10c-2 -29.333 -3 -51.333 -3 -66v-6
c0 -6 1 -13.667 3 -23c-3.33301 -7.33301 -5 -20 -5 -38v-14c0 -15.333 -5.33301 -23 -16 -23h-31c-10.667 0 -17.667 4 -21 12c1.33301 14 2 24.333 2 31v13c0 24.667 -3 37 -9 37v5c0.666992 2.66699 2.33398 4 5.00098 4l-2 21v70c0 56 -1 127.333 -3 214l-2 11
c3.33301 16.667 11.666 25 24.999 25zM410 540.999c1.33301 -32.667 2 -56.999 2 -72.999c0 -8.66699 -0.666992 -17.667 -2 -27c1.33301 -4.66699 2 -12.334 2 -23.001h44c23.333 0 38 19 44 57c0 1.33301 -0.666992 2 -2 2l2 10c0 37.333 -13.333 56 -40 56h-45z" />
    <glyph glyph-name="macron" unicode="&#xaf;" horiz-adv-x="399" 
d="M227 933h56c15.333 0 23 -8.33301 23 -25v-29c0 -16.667 -11 -25 -33 -25h-77c-5.33301 0 -11.666 -0.666992 -18.999 -2c-2.66699 1.33301 -5.33398 2 -8.00098 2c-22 -1.33301 -35.333 -2 -40 -2c-20.667 0 -31 10.333 -31 31v19c0 19.333 5.66699 29 17 29
c48 1.33301 85.333 2 112 2z" />
    <glyph glyph-name="degree" unicode="&#xb0;" horiz-adv-x="280" 
d="M135 783c42.667 0 72.332 -23.3369 88.999 -70.0039c1.33301 -7.33301 2 -13.666 2 -18.999v-8c0 -39.333 -21.333 -67.666 -64 -84.999c-5.33301 -1.33301 -10.666 -2 -15.999 -2h-13c-42 2.66699 -69 25.334 -81 68.001c0 0.666992 -1.33301 11.334 -4 32.001v6
c0 28 20.333 52.667 61 74c11.333 2.66699 20 4 26 4zM92.998 723.996c-4.66699 2.66699 -8.33301 4 -11 4v-4c5.33301 0 8 -1.33301 8 -4c0 -4.66699 -2 -10.334 -6 -17.001c0 -34 12 -55.333 36 -64l15 -2c35.333 4.66699 53 20.334 53 47.001v13c-6 29.333 -20 44 -42 44
h-20c-9.33301 0 -20.333 -5.66699 -33 -17z" />
    <glyph glyph-name="plusminus" unicode="&#xb1;" horiz-adv-x="420" 
d="M240 587c9.33301 -2 14.001 -4.66406 14.001 -7.99707v-4c2 -14.667 3 -25.334 3 -32.001v-72l76 2c28 0 42 -6.33301 42 -19c0 -15.333 0.666992 -28 2 -38l-2 -9c1.33301 -7.33301 2 -14.333 2 -21c0 -4 -4 -8.33301 -12 -13c-2.66699 1.33301 -5 2 -7 2
c0 -2.66699 -1.33301 -4 -4 -4l-93 -2c-2.66699 -0.666992 -4 -2 -4 -4v-24c0 -2.66699 0.666992 -5.33398 2 -8.00098c-1.33301 -2.66699 -2 -5.66699 -2 -9v-4c0 -10.667 0.666992 -20.334 2 -29.001c0 -30 -8 -45 -24 -45h-27c-8 0 -18 -0.666992 -30 -2
c-12.667 0 -19 10.667 -19 32v17c0 16 -0.666992 40.667 -2 74h-100c-15.333 0 -23 10.667 -23 32v36c0 19.333 5.66699 29 17 29h21l15 -12l-2 4v4c1.33301 4.66699 5.66602 7 12.999 7h31l26 2v91c0 16.667 12 25 36 25c14.667 1.33301 31 2 49 2zM356.001 106.003
c14 -4.66699 20.999 -9.00098 20.999 -13.001v-2h-6v-8c4 0 6 -3.66699 6 -11c0 -11.333 -2.66699 -17 -8 -17v-2c5.33301 0 8 -1.33301 8 -4v-2c0 -1.33301 -0.666992 -2 -2 -2c4.66699 -9.33301 7 -15.666 7 -18.999c0 -16 -7.33301 -24 -22 -24h-25l-15 4
c-2.66699 -2 -16 -4 -40 -6c-1.33301 0 -2 0.666992 -2 2c-16.667 -1.33301 -28.667 -2 -36 -2h-51c-9.33301 0 -23.666 0.666992 -42.999 2v-2l-4 2c-2 0 -10.333 -0.666992 -25 -2l-15 2c-5.33301 -2.66699 -11 -4 -17 -4h-17c-20 2.66699 -30 7.66699 -30 15l2 13
c-0.666992 12.667 -2 19 -4 19c0 1.33301 0.666992 2 2 2l-2 25v4c2 14.667 5 22 9 22h8c1.33301 0 2 -0.666992 2 -2c1.33301 0 7 2 17 6c3.33301 0 6.33301 -0.666992 9 -2c14 1.33301 25.333 2 34 2h17c2.66699 0 5.33398 0.666992 8.00098 2c1.33301 0 2 -0.666992 2 -2
c16.667 1.33301 28.667 2 36 2h157c5.33301 0 11.666 0.666992 18.999 2z" />
    <glyph glyph-name="uni00B2" unicode="&#xb2;" horiz-adv-x="264" 
d="M130 783c38 0 66.333 -18.001 85 -54.001l-4 -21c1.33301 0 2 -0.666992 2 -2l4 2h2c0 -2.66699 2 -11 6 -25c0 -35.333 -13.667 -90 -41 -164c-37.333 -58 -59.666 -104.333 -66.999 -139h96c12.667 0 19 -8.33301 19 -25v-13c0 -19.333 -7 -29 -21 -29h-8
c-4.66699 0 -9.66699 2 -15 6c0 -5.33301 -16 -8 -48 -8h-91c-11.333 0 -18.333 8.33301 -21 25c0 36 31 109.333 93 220c19.333 54 30.666 81.333 33.999 82l-4 8c2.66699 6.66699 4 13 4 19c0 33.333 -7.66699 50 -23 50c-18 -2 -27 -11.333 -27 -28
c1.33301 -9.33301 2 -16.666 2 -21.999c0 -15.333 -13.333 -23 -40 -23h-8c-16.667 0 -25 9 -25 27c0 53.333 21 89.333 63 108z" />
    <glyph glyph-name="uni00B3" unicode="&#xb3;" horiz-adv-x="252" 
d="M120 789l11.001 0.000976562c50.667 0 79.667 -34.667 87 -104l2 -18c0 -39.333 -12.333 -72 -37 -98c0 -2.66699 6.33301 -8.33398 19 -17.001c16.667 -24 25 -48.333 25 -73v-20c0 -13.333 0.666992 -25.333 2 -36c0 -53.333 -18 -88 -54 -104
c-4.66699 -2.66699 -14.667 -5.33398 -30 -8.00098c-45.333 0 -77 20.667 -95 62c-7.33301 18.667 -11 36.667 -11 54v5c1.33301 13.333 5.66602 20 12.999 20c2.66699 -1.33301 4.66699 -2 6 -2l8 5c26.667 0 40 -10.667 40 -32c4.66699 -30 15 -45 31 -45
c7.33301 0 14.333 6.66699 21 20c0 83.333 -7 125 -21 125c-7.33301 2.66699 -24.666 6.33398 -51.999 11.001c-4 5.33301 -6 11.333 -6 18v27c0 12.667 16.667 19 50 19c0 1.33301 2 2 6 2v13c11.333 10.667 17 22 17 34s-1.66699 33 -5 63
c-4.66699 8.66699 -14.334 13 -29.001 13c-10 0 -16 -20 -18 -60c-6 -6 -11.667 -9 -17 -9h-29c-15.333 0 -23 9.66699 -23 29c8 70.667 37.667 106 89 106z" />
    <glyph glyph-name="acute" unicode="&#xb4;" horiz-adv-x="399" 
d="M212 951l24.998 0.000976562c4.66699 0 8.33398 -0.666992 11.001 -2l12 2h26c8.66699 -0.666992 13 -2.66699 13 -6c0 -6.66699 -6.33301 -17.334 -19 -32.001c0 -2 -3.66699 -9 -11 -21l-11 2h-2v-19c0 -2.66699 -1.33301 -4 -4 -4l-6 -11
c-6.66699 -15.333 -17.334 -23 -32.001 -23c-6.66699 0 -11 0.666992 -13 2c-9.33301 -1.33301 -17 -2 -23 -2h-19c-7.33301 0 -11.666 2 -12.999 6v2c0 7.33301 9.33301 24.333 28 51c10.667 36.667 23.334 55 38.001 55z" />
    <glyph glyph-name="periodcentered" unicode="&#xb7;" horiz-adv-x="200" 
d="M157 433v-60c0 -11.333 -5.66699 -17 -17 -17h-60c-11.333 0 -17 5.66699 -17 17v60c0 11.333 5.66699 17 17 17h60c11.333 0 17 -5.66699 17 -17z" />
    <glyph glyph-name="cedilla" unicode="&#xb8;" horiz-adv-x="399" 
d="M156 14h61.999c18.667 0 42.334 -27.667 71.001 -83c4 -19.333 6 -31 6 -35c0 -55.333 -33.333 -88 -100 -98h-18c-24 0 -36 9.66699 -36 29l-6 50c0 2 2.66699 5.33301 8 10l15 -2h19c19.333 0 30.333 8.33301 33 25v17c0 20.667 -19.333 49 -58 85z" />
    <glyph glyph-name="uni00B9" unicode="&#xb9;" horiz-adv-x="194" 
d="M131 784c19.333 0 29.001 -7.00195 29.001 -21.002v-248c0 -10 -0.666992 -25.667 -2 -47c1.33301 0 2 -0.666992 2 -2h-2c1.33301 -1.33301 2.66602 -11.666 3.99902 -30.999h-2c1.33301 -3.33301 2 -5.66602 2 -6.99902c0 -14 -0.666992 -43.667 -2 -89l2 -19
c-2 -12.667 -8.33301 -19 -19 -19h-31c-16 0 -24 10.667 -24 32c0 22 0.666992 56 2 102c0 1.33301 -0.666992 2 -2 2l2 12c0 18.667 -0.666992 50.667 -2 96c2.66699 4.66699 4 9 4 13c-4 6.66699 -6 12 -6 16v32c0 6 1.33301 15.333 4 28c-2.66699 10 -4 18.333 -4 25v5
h-32c-15.333 0 -23 7 -23 21v17c0 15.333 15.667 31.333 47 48c14.667 22.667 31.667 34 51 34h2z" />
    <glyph glyph-name="ordmasculine" unicode="&#xba;" horiz-adv-x="307" 
d="M155 788c56 0 91.667 -26.9971 107 -80.9971c1.33301 -24.667 2.66602 -73.334 3.99902 -146.001c-1.33301 -23.333 -2 -41.333 -2 -54l2 -10c-2.66699 -4.66699 -4 -8.33398 -4 -11.001c4 -7.33301 6 -16.333 6 -27c0 -76.667 -9 -117.334 -27 -122.001
c-2 -8.66699 -5 -13 -9 -13l-12 2h-2v-2c0 -2.66699 2 -4 6 -4v-2c0 -8.66699 -20.667 -15.667 -62 -21h-9c-51.333 0 -86.666 20.667 -105.999 62c-1.33301 12 -3.33301 22.667 -6 32c2.66699 0 4 1.33301 4 4v4l-6 8v129c0 22.667 0.666992 45 2 67
c-1.33301 8 -2 26 -2 54c0 49.333 8.33301 82 25 98h4l4 10c13.333 8 27.333 14.333 42 19c12 2 25.667 3.33301 41 4zM153 738.003v-2.00098l2 -13c-16 -2 -29 -9.33301 -39 -22l2 -25v-129c0 -1.33301 0.666992 -2 2 -2c0 -2 -0.666992 -3 -2 -3
c1.33301 -13.333 2 -23.666 2 -30.999v-122c0 -5.33301 3.66699 -12.333 11 -21v-2l6 -7v7c8.66699 -2.66699 14.667 -4 18 -4v2c4.66699 -3.33301 9 -5 13 -5h4c0 3.33301 4.33301 9 13 17l2 15v237c0 1.33301 0.666992 2 2 2l-2 4c0 56.667 -6.33301 85 -19 85
c-2 0 -7 6.33301 -15 19zM60 245.002l86.999 0.000976562c2.66699 -0.666992 4 -2 4 -4c5.33301 2.66699 11 4 17 4h77c14 0 21 -6.33301 21 -19v-37c0 -15.333 -9.66699 -23 -29 -23h-30c-19.333 1.33301 -31.666 2.66602 -36.999 3.99902l-4 -2h-106
c-11.333 0 -17 6.33301 -17 19c2.66699 0 4 1.33301 4 4l-6 8v27c2 12.667 8.33301 19 19 19z" />
    <glyph glyph-name="guillemotright" unicode="&#xbb;" horiz-adv-x="425" 
d="M50 605c5.33301 0 13.001 -6.33203 23.001 -18.999c90 -77.333 139.333 -123.333 148 -138l2 -10c0 -3.33301 -0.666992 -5 -2 -5l2 -21v-49c0 -14.667 -5.66699 -27.334 -17 -38.001l-2 -2v-2c-54 -56.667 -87.667 -85 -101 -85v-4c1.33301 -2.66699 2 -4.66699 2 -6
c-10.667 -7.33301 -28.334 -23 -53.001 -47c-8.66699 0 -13 17 -13 51v36c0 10 25.333 36.667 76 80l47 49c0 1.33301 -15 16.333 -45 45l-25 23c-34 26.667 -51 45.667 -51 57c0 3.33301 -0.666992 14 -2 32l2 15l-2 11c0 18 3.66699 27 11 27zM212.001 605.001
c5.33301 0 13.001 -6.33203 23.001 -18.999c90 -77.333 139.333 -123.333 148 -138l2 -10c0 -3.33301 -0.666992 -5 -2 -5l2 -21v-49c0 -14.667 -5.66699 -27.334 -17 -38.001l-2 -2v-2c-54 -56.667 -87.667 -85 -101 -85v-4c1.33301 -2.66699 2 -4.66699 2 -6
c-10.667 -7.33301 -28.334 -23 -53.001 -47c-8.66699 0 -13 17 -13 51v36c0 10 25.333 36.667 76 80l47 49c0 1.33301 -15 16.333 -45 45l-25 23c-34 26.667 -51 45.667 -51 57c0 3.33301 -0.666992 14 -2 32l2 15l-2 11c0 18 3.66699 27 11 27z" />
    <glyph glyph-name="questiondown" unicode="&#xbf;" horiz-adv-x="390" 
d="M192 -11c-71.333 0 -119.669 29.6631 -145.002 88.9961c-8.66699 23.333 -13 46.333 -13 69v10c14.667 60 30 103.667 46 131c47.333 81.333 71 136 71 164c-1.33301 40.667 -2 74 -2 100v34c0 13.333 11 20 33 20h50c15.333 0 23 -8.33301 23 -25v-27
c0 -5.33301 0.666992 -13 2 -23l-6 -12v-2l4 -6v-9c0 -2 -2.33301 -4 -7 -6v4h-6c11.333 -7.33301 17 -17.666 17 -30.999c0 -55.333 -23 -115.666 -69 -180.999c-16.667 -35.333 -27 -53.333 -31 -54c-2.66699 0 -4 -0.666992 -4 -2l-11 -67v-20
c0 -31.333 13.333 -49.333 40 -54h21c21.333 0 34.333 15 39 45c0 6.66699 -1.33301 21.334 -4 44.001c0 10.667 7 17 21 19c51.333 0 77 -7.66699 77 -23c1.33301 -7.33301 2 -14.333 2 -21v-21c0 -3.33301 -2.66699 -5.33301 -8 -6v-8c4.66699 0 7.33398 -5 8.00098 -15
c-3.33301 -21.333 -13.666 -45.666 -30.999 -72.999c-28.667 -28.667 -67.667 -43 -117 -43zM168.997 669.996c-14.667 0 -22 11.666 -22 34.999c-2 6.66699 -3 22.667 -3 48v4c0 16.667 10 25 30 25c1.33301 0 3.33301 -0.666992 6 -2c9.33301 1.33301 17 2 23 2h21
c19.333 0 29 -8.33301 29 -25l2 -19c0 -1.33301 -0.666992 -6.66602 -2 -15.999l2 -21c0 -19.333 -10.333 -29 -31 -29c-4 0 -22.333 -0.666992 -55 -2zM177.997 505.995l-5 2l1 -8l3 -2l1 3v5zM173.997 695.995l-2 2l-4 -5l3 -1l3 3v1z" />
    <glyph glyph-name="Agrave" unicode="&#xc0;" 
d="M116 952h67.998c16 0 30 -18 42 -54c2 -2 10.333 -18 25 -48c-2 -7.33301 -7 -11 -15 -11h-2c-9.33301 0 -17.666 0.666992 -24.999 2c-7.33301 -1.33301 -15 -2 -23 -2c-15.333 0 -36.666 25.667 -63.999 77c-1.33301 0.666992 -7.66602 9.66699 -18.999 27
c1.33301 6 5.66602 9 12.999 9zM218.998 782c13.333 -1.33301 23.668 -2.00195 31.001 -2.00195c0.666992 0 5 0.666992 13 2c17.333 0 28 -28.667 32 -86c27.333 -195.333 41 -300.666 41 -315.999l-2 -5c5.33301 -20.667 9.66602 -39.334 12.999 -56.001
c-3.33301 -4 -5 -7.33301 -5 -10c6.66699 0 15 -39.333 25 -118l-2 -4c6 -19.333 13.667 -73 23 -161v-4c0 -15.333 -8.33301 -23 -25 -23h-54c-18 0 -27 18.667 -27 56v15l-2 7l-10 62l2 5v2c-6 31.333 -10.333 50 -13 56h-2c-44.667 -1.33301 -76 -2 -94 -2l-13 4l-23 -29
l-2 -15c2 0 4 -2 6 -6v-2c-2.66699 0 -4 -5 -4 -15c2 0 4 -2.66699 6 -8c-4.66699 -16.667 -8.66699 -32 -12 -46h2c-1.33301 -56 -8.33301 -84 -21 -84c-6 -1.33301 -11 -2 -15 -2s-9.66699 0.666992 -17 2c-7.33301 -1.33301 -14.333 -2 -21 -2
c-15.333 0 -25.666 5 -30.999 15v10l2 4c4.66699 -2.66699 8 -4 10 -4v2c0 2.66699 -3.33301 8.33398 -10 17.001c10 93.333 18.333 140 25 140c-2.66699 4.66699 -4 8 -4 10c57.333 382.667 86 576.334 86 581.001c7.33301 5.33301 11.666 8 12.999 8l14 -4l6 4h15
c8 0 12 -3.33301 12 -10h7v4l-2 4c1.33301 0 3.33301 0.666992 6 2l12 -2zM194 622.998c0 -1.33301 0.666016 -3.33301 1.99902 -6c0 -27.333 -5.66699 -62.333 -17 -105c-1.33301 0 -2 -0.666992 -2 -2c0.666992 -3.33301 2 -5 4 -5
c-1.33301 -25.333 -9.66602 -90 -24.999 -194v-19l4 2c1.33301 0 5.66602 -0.666992 12.999 -2c7.33301 4.66699 14.333 7 21 7h16c9.33301 0 23.333 -1 42 -3l3 5c-6 0 -12.667 41 -20 123c-10.667 76.667 -16 125 -16 145l6 14c0 6.66699 -3.33301 13.667 -10 21v6
c0 3.33301 3.33301 5 10 5v4l-10 -2c-3.33301 5.33301 -5.66602 14.333 -6.99902 27h-4z" />
    <glyph glyph-name="Aacute" unicode="&#xc1;" 
d="M251 955l34.998 0.000976562c10.667 0 16.334 -2.33301 17.001 -7v-8c-15.333 -23.333 -26.333 -38 -33 -44l-2 -4c-16 -33.333 -31.333 -50 -46 -50h-17c-10 0 -18.333 0.666992 -25 2l-4 -2c-10 0 -15.667 2.33301 -17 7v8c28.667 59.333 45.334 90.666 50.001 93.999
c8 0 13 0.666992 15 2c4 -1.33301 6 -3 6 -5c7.33301 4.66699 14.333 7 21 7zM148.998 780.001l110 -0.000976562c20.667 0 31 -18.667 31 -56c6 -15.333 13.667 -64.666 23 -147.999c0 -1.33301 -0.666992 -2 -2 -2c6 -29.333 11 -64 15 -104l-2 -8
c5.33301 -11.333 21.333 -120.333 48 -327c6.66699 -56.667 10.667 -85 12 -85l-2 -4c3.33301 -16.667 5.33301 -25 6 -25c0 -11.333 -7.66699 -17.666 -23 -18.999c-5.33301 0 -10.666 0.666992 -15.999 2c-9.33301 -1.33301 -18.333 -2 -27 -2h-13
c-19.333 0 -29 18.667 -29 56c-0.666992 0 -2.66699 10.333 -6 31c2 2 4.66699 3 8 3v2c-8 0 -15.667 36 -23 108h-23c-8 0 -19 0.666992 -33 2c-4.66699 -2.66699 -10.334 -4 -17.001 -4h-41c-3.33301 0 -8.33301 -29.333 -15 -88c-0.666992 0 -2.66699 -7.66699 -6 -23
c0 -1.33301 0.666992 -3.33301 2 -6c-3.33301 -54 -11 -81 -23 -81c-2.66699 -1.33301 -4.66699 -2 -6 -2c-20.667 0.666992 -31 2.66699 -31 6l-11 -2c-4.66699 1.33301 -7.33398 2 -8.00098 2l-12 -4c-9.33301 0 -15 6.33301 -17 19v6c0 8 2 23.333 6 46
c10.667 95.333 22 153.666 34 174.999l-5 22c7.33301 64 13 98.667 17 104c-1.33301 0 -2 0.666992 -2 2h2c0 2 -0.666992 3 -2 3c2.66699 37.333 10.334 56 23.001 56h2v2l-4 6l10 13v2h-2l-15 -17l-4 2c8.66699 60 17.667 117 27 171h-2c14 109.333 24.333 164 31 164z
M202.998 645c0 -43.333 -9.66895 -94.667 -29.002 -154v-4c5.33301 -6 8 -10.333 8 -13c-2.66699 -7.33301 -8.66699 -51 -18 -131c-3.33301 0 -5.66602 -14.333 -6.99902 -43l5 -3h79l10 3v2c0 10.667 -5 48 -15 112c1.33301 2.66699 2 4.66699 2 6
c-5.33301 18.667 -11.333 63.667 -18 135c2.66699 14.667 4 22.334 4 23.001c-5.33301 0 -9.66602 14.667 -12.999 44l3 4c-3.33301 5.33301 -5 11.666 -5 18.999h-6z" />
    <glyph glyph-name="Acircumflex" unicode="&#xc2;" 
d="M233 956c6 -2 9 -4 9 -6c-12.667 -3.33301 -19 -6.33301 -19 -9l4 -2h2l21 6l67 -89v-4c0 -2 -5 -4.66699 -15 -8c-1.33301 0 -3.33301 0.666992 -6 2c-14 -1.33301 -25 -2 -33 -2h-7c-10 0 -24.333 17.333 -43 52h-7c-21.333 -34.667 -36.333 -52 -45 -52
c-2 -2 -7 -3 -15 -3h-29c-10 0 -15.667 2.33301 -17 7v8c45.333 65.333 73.333 98 84 98h37zM200 779l60.999 -0.000976562c19.333 0 29 -18.667 29 -56l14 -117c12.667 -70 33 -213.333 61 -430c1.33301 -11.333 2.66602 -19 3.99902 -23c9.33301 -76 16 -122.333 20 -139
c-4.66699 -11.333 -13.667 -17 -27 -17h-18c-40.667 0 -61 6.33301 -61 19l-22 185h-13c-4 0 -6 4 -6 12h-2c-7.33301 -8 -13.666 -12 -18.999 -12h-75c-6 0 -15 -59 -27 -177c-2 -16.667 -9.66699 -25 -23 -25h-31c-6 0 -13.667 0.666992 -23 2
c-2 -1.33301 -5.33301 -2 -10 -2c-8 0 -14.333 6.33301 -19 19c12.667 86 23 145.667 31 179c0 32 3 50.667 9 56c0 1.33301 -1 3.33301 -3 6c5.33301 30.667 9 46 11 46l-2 8c12 86.667 20.333 139.334 25 158.001h-2l14 94c20.667 140 34.667 210 42 210
c16.667 2.66699 37.334 4 62.001 4zM201.999 645.999c-15.333 -118 -29.002 -213.333 -41.002 -286l2 -7c0 -7.33301 -1.33301 -11 -4 -11c1.33301 -2.66699 2 -4.66699 2 -6c0 -4.66699 -0.666992 -16.334 -2 -35.001h50c8.66699 0 18.334 -2.33301 29.001 -7
c7.33301 3.33301 11.333 7 12 11c-1.33301 2.66699 -2 4.66699 -2 6c2 0 4 2 6 6v4c-9.33301 2.66699 -14 24.334 -14 65.001c-1.33301 0 -2.66602 8.33301 -3.99902 25c2 0 4 2 6 6v4c-8.66699 0 -13 12.667 -13 38h2l-22 187h-7z" />
    <glyph glyph-name="Atilde" unicode="&#xc3;" 
d="M166 950c6 0 28.668 -5.66699 68.001 -17h17c6 0 20 2.66699 42 8c5.33301 0 8 -8.33301 8 -25l-2 -20l2 -13c-9.33301 -18 -27.333 -27 -54 -27l-81 19h-2c-18 -1.33301 -32 -5 -42 -11c-5.33301 2 -8 6.33301 -8 13v46c3.33301 18 20.666 27 51.999 27zM157.001 781
l15.0029 -1.99805l12 2l11 -2c7.33301 1.33301 12.666 2 15.999 2c14.667 -1.33301 23 -2 25 -2l11 2c5.33301 -1.33301 10.666 -2 15.999 -2v2c2.66699 -1.33301 5.66699 -2 9 -2c2.66699 -4 6 -8.66699 10 -14c2 0 4 -3 6 -9l-2 -4c7.33301 -29.333 20 -107 38 -233
c4 -6.66699 6 -25.334 6 -56.001c2.66699 -6.66699 9.66699 -57.334 21 -152.001c-2.66699 0 -4 -1.33301 -4 -4v-4c4 0 6 -1.33301 6 -4v-2l-11 2l-2 -4c2.66699 -2 5 -3 7 -3h6c1.33301 -2 2 -4.66699 2 -8v-27c0 -24.667 1.33301 -40.667 4 -48l-6 -25
c9.33301 0 14 -15 14 -45l19 -119c0 -14 -18.667 -21 -56 -21h-10c-26.667 0 -40 11 -40 33l-14 154c0 8.66699 -1.66699 13 -5 13l-100 1l-16 -1c-15.333 -133.333 -26.333 -200 -33 -200c-5.33301 -2.66699 -11 -4 -17 -4h-19c-7.33301 0 -17 0.666992 -29 2
c-2.66699 -1.33301 -5.33398 -2 -8.00098 -2c-14 0 -21 8.33301 -21 25c0 6 2 20.667 6 44c8.66699 67.333 15 104 19 110c-1.33301 2.66699 -2 4.66699 -2 6c12 76.667 19.667 115 23 115l-2 20c23.333 152 37 236.667 41 254v15c7.33301 58 13 93.333 17 106l-2 18
c4 47.333 13 71 27 71c2 1.33301 6 2 12 2zM205.004 648.002l-8 -47.999h2c-1.33301 -2.66699 -2 -4.66699 -2 -6v-6c-25.333 -180 -38 -276.333 -38 -289l5 -2h47l15 2l8 -2l11 2h6v2l-6 75c-4.66699 9.33301 -7 31.333 -7 66h-2c1.33301 2.66699 2 4.66699 2 6l-2 11
c-4 5.33301 -6 15.666 -6 30.999c-6.66699 50 -13 102.667 -19 158h-6z" />
    <glyph glyph-name="Adieresis" unicode="&#xc4;" 
d="M247 956h52c14 0 21 -11 21 -33v-44c0 -1.33301 0.666992 -2 2 -2c-2.66699 -14 -9.66699 -21 -21 -21h-4c-1.33301 0 -7 1.33301 -17 4l-6 -4h-29c-15.333 0 -23 11.667 -23 35v42c0 15.333 8.33301 23 25 23zM157 954c11.333 0 18.333 -7 21 -21
c0 -1.33301 -0.666992 -3.33301 -2 -6l4 -50c-1.33301 -15.333 -8 -23 -20 -23h-5c-12.667 0 -30.667 -0.666992 -54 -2c-12 0 -18 12.333 -18 37c-2 18.667 -3 34 -3 46c0 12.667 20.333 19 61 19h16zM239 777l33 -0.000976562c8.66699 0 14 -12.333 16 -37l-4 -3l-12 3v-7
h12c3.33301 0 7 -4.66699 11 -14l-4 -11l70 -463l-2 -13v-2c2.66699 -3.33301 4.66699 -9.66602 6 -18.999c0 -1.33301 -4 -6.66602 -12 -15.999v-7h4l8 7l25 -175c0 -14 -13.667 -21 -41 -21l-13 2c-7.33301 -1.33301 -13.333 -2 -18 -2c-21.333 0 -32 7.66699 -32 23v17
c0 1.33301 0.666992 2 2 2c-4 0 -9.33301 34.667 -16 104c-1.33301 0 -5 19.333 -11 58c-54.667 -1.33301 -94 -2 -118 -2c-12.667 -88 -20.334 -137.333 -23.001 -148l2 -4l-4 -8c0 -2 0.666992 -4.33301 2 -7c0 -24.667 -10.333 -37 -31 -37h-50c-11.333 0 -19 5 -23 15
l37 255c14 106.667 26.667 186 38 238c0 1.33301 -0.666992 2 -2 2l27 183h4v4l-4 6v2c0 7.33301 2 13.666 6 18.999c-1.33301 4 -2.66602 6 -3.99902 6c0 32 11 48 33 48c30.667 1.33301 60 2 88 2zM205 645.999l-10 -50.001h2c-4 -14 -7.33301 -34.667 -10 -62
c-9.33301 -2 -16.333 -5.66699 -21 -11v-2h2l14 4c0 -1.33301 0.666992 -2 2 -2c-2.66699 -26 -6 -39 -10 -39l2 -15c-2.66699 -15.333 -9.66699 -70.666 -21 -165.999l5 -2h85c2.66699 0 4 1.33301 4 4c-4 59.333 -13.667 143.333 -29 252v22c-4 4 -6.66699 16 -8 36
c2.66699 4.66699 4 8.66699 4 12c-1.33301 0 -5 6.33301 -11 19zM257 945.998l-2 -1l-1 -5l2 -2h2l2 8h-3z" />
    <glyph glyph-name="Aring" unicode="&#xc5;" 
d="M200 990c28.667 -4 47.334 -10.668 56.001 -20.001c22 -22.667 33 -50 33 -82c-16 -49.333 -36 -74 -60 -74c0 -2.66699 -10.333 -5 -31 -7c-38.667 0 -66.334 25.667 -83.001 77c0 6 -0.666992 11.667 -2 17c0 38.667 20 66.334 60 83.001
c7.33301 2.66699 16.333 4.66699 27 6zM150 906.999v-16c0 -30.667 24.333 -46 73 -46c19.333 18 29 34 29 48v14c0 22.667 -15.333 37.334 -46 44.001h-4c-25.333 0 -42 -11 -50 -33c-1.33301 -2.66699 -2 -6.33398 -2 -11.001zM264 777.999
c16 0 26.667 -31.666 32 -94.999c9.33301 -51.333 19 -123 29 -215l-2 -4c1.33301 -2 2 -4.66699 2 -8c-4 0 -9.66699 -2 -17 -6v-5c0 -2 2.66699 -4.66699 8 -8h5c2.66699 0 4 4.33301 4 13c4 0 11.667 -43 23 -129c8 -50.667 22.333 -152.667 43 -306
c0 -12.667 -20 -19 -60 -19h-17c-19.333 0 -29 16.667 -29 50c-8 76 -15 127.333 -21 154c-34.667 -1.33301 -62.334 -2 -83.001 -2h-33c-4 0 -11 -54 -21 -162c-3.33301 -28 -12.333 -42 -27 -42c-2 -1.33301 -6.66699 -2 -14 -2h-42c-16.667 2 -25 8.33301 -25 19
c18 132.667 29 211 33 235h2l5 -2l2 4c-2.66699 0 -5.66699 1.33301 -9 4c44.667 325.333 69.667 496.666 75 513.999c6.66699 6.66699 14.334 10 23.001 10h19c25.333 0 57 0.666992 95 2zM202 645c-4.66699 -54 -8.66797 -81 -12.001 -81
c0 -1.33301 0.666992 -3.33301 2 -6c-10 -97.333 -22 -183.333 -36 -258l4 -2h55c6.66699 0 18.334 0.666992 35.001 2v2l-21 195l2 13c-2.66699 4.66699 -4 8.66699 -4 12c-2.66699 8 -6.66699 29.667 -12 65l-7 58h-6z" />
    <glyph glyph-name="AE" unicode="&#xc6;" horiz-adv-x="560" 
d="M453 780c14 -0.666992 20.999 -3.32812 20.999 -7.99512h6c0 5.33301 1.33301 8 4 8h29c21.333 0 32 -7.66699 32 -23c0 -1.33301 -1 -3.33301 -3 -6c2 -9.33301 3 -17 3 -23v-12c0 -22.667 -7.66699 -34 -23 -34h-67c-20.667 0 -48.334 -0.666992 -83.001 -2
c-5.33301 -8 -8 -13.333 -8 -16c2 0 4 -3 6 -9c-4 -16.667 -6 -27 -6 -31c2.66699 -4.66699 4 -8.66699 4 -12v-152c0 -2.66699 1.33301 -4 4 -4c51.333 1.33301 85.333 2 102 2c19.333 0 29 -9 29 -27c0 -48.667 -5 -73 -15 -73c-18 -1.33301 -32.333 -2 -43 -2h-59
c-3.33301 0 -7.33301 1.33301 -12 4c-4 -4 -7.33301 -13.667 -10 -29l4 -2c0 -9.33301 -0.666992 -21.333 -2 -36c1.33301 -66 2 -125.667 2 -179v-6c1.33301 -9.33301 3.33301 -14 6 -14c6.66699 4 12.334 6 17.001 6c9.33301 0 14 -0.666992 14 -2l25 2h75
c10 -2.66699 15.667 -4 17 -4c0 2.66699 1.33301 4 4 4c8.66699 -2.66699 13.334 -6.33398 14.001 -11.001v-6c0 -2.66699 -0.666992 -5.33398 -2 -8.00098c2.66699 -4.66699 4 -9 4 -13v-37c0 -16.667 -10.333 -25 -31 -25h-8c-5.33301 0 -8 0.666992 -8 2l-15 -2h-96
c-4 0 -8.66699 0.666992 -14 2l-11 -2h-62c-22 0 -33 8.33301 -33 25v2c0 7.33301 0.666992 17 2 29l-2 4c1.33301 2.66699 2 5.66699 2 9s-0.666992 8.66602 -2 15.999l2 13c-1.33301 2.66699 -2 4.66699 -2 6c1.33301 2.66699 2 4.66699 2 6h2v11
c-2.66699 0 -4 1.33301 -4 4v14c0 3.33301 1.33301 5 4 5v16c4 0 6.66699 7 8 21c-10.667 3.33301 -16 10.333 -16 21h-38l-4 2l2 4v4h-2c-2.66699 0 -4 -1.33301 -4 -4l2 -4l-25 -2h-29c-6 0 -11 -16.667 -15 -50c-6.66699 -26.667 -12.667 -57.334 -18 -92.001
c-2 0 -3 -0.666992 -3 -2l3 -10c-3.33301 -32 -13.333 -48 -30 -48h-22l-15 4c-4.66699 -2.66699 -8.66699 -4 -12 -4h-19c-14 3.33301 -21 9.66602 -21 18.999l23 89c6 36 10.667 54 14 54c-1.33301 2.66699 -2 5.66699 -2 9h5v10c6 46.667 13.5 88.5 22.5 125.5
s16.5 66.5 22.5 88.5c10 52.667 34.333 156 73 310c5.33301 48.667 18.666 73 39.999 73h237c2.66699 0 5.33398 0.666992 8.00098 2zM259.999 647.006c-4.66699 -14 -22.667 -91.666 -54 -232.999l-3 -10l-20 -102c4 -4.66699 7.33301 -7 10 -7c4.66699 3.33301 9 5 13 5
h56c2 0 4.66699 2.66699 8 8c-4 4.66699 -6 13 -6 25v21c0 8.66699 0.666992 19 2 31c-1.33301 5.33301 -2 10.666 -2 15.999l4 9c-2.66699 8.66699 -4 14.667 -4 18v15c0 11.333 0.666992 24.666 2 39.999l-2 4c0 2.66699 0.666992 4 2 4c-1.33301 14 -2 24.333 -2 31v27
c0 11.333 0.666992 20.333 2 27c-1.33301 8.66699 -2 18.334 -2 29.001v38c0 2.66699 -1.33301 4 -4 4z" />
    <glyph glyph-name="Ccedilla" unicode="&#xc7;" horiz-adv-x="400" 
d="M198 787c6 0 12.332 -2.66309 18.999 -7.99609l10 6c32.667 0 67.334 -15.333 104.001 -46c20 -23.333 34 -57.333 42 -102v-2c0 -12 0.666992 -24.333 2 -37c-2.66699 -16.667 -9.66699 -25 -21 -25h-71c-12.667 0 -19 9.66699 -19 29v31c0 30 -14.333 48 -43 54
c-20 0 -32.667 0.666992 -38 2c-22 -16.667 -33 -33.334 -33 -50.001v-43c0 -30 -0.666992 -53.667 -2 -71c1.33301 -14.667 2 -37.667 2 -69v-18c0 -6 -1.33301 -11.667 -4 -17l2 -4l-2 -13v-2l2 -4v-4l2 -8l-4 -2c2.66699 -2.66699 4 -5.66699 4 -9v-50l-4 -14
c4 -7.33301 6 -14.333 6 -21v-8c0 -9.33301 -0.666992 -18.333 -2 -27c0 -2 0.666992 -4.33301 2 -7c-1.33301 -18 -2 -32.333 -2 -43v-36c0 -2.66699 -0.666992 -5.33398 -2 -8.00098c0 -32.667 10.333 -57 31 -73v-2l6 -2l5 2h33c23.333 0 37 23 41 69
c0 8 0.666992 12.667 2 14l-2 13v10c0 12.667 7 19 21 19h63c13.333 0 20 -5.66699 20 -17c-17.333 -4.66699 -26.333 -8 -27 -10c2.66699 -1.33301 5 -2 7 -2c8.66699 2.66699 14.667 4 18 4h2v-15c0 -86 -29.667 -142.667 -89 -170
c-15.333 -7.33301 -27.666 -11 -36.999 -11c0 -2.66699 10.333 -20.667 31 -54c5.33301 -20 8 -33.667 8 -41v-17c-4 -14.667 -7.33301 -23 -10 -25h-7c0 4 -1.33301 6 -4 6h-4v-4l2 -10h4l4 2v-4c-6 -4.66699 -9.33301 -9.66699 -10 -15c-20 -20.667 -47 -31 -81 -31
c-24.667 0 -37 9 -37 27l-7 52c0 4 3.66699 7.33301 11 10c11.333 -1.33301 21 -2 29 -2c10.667 0 21 6.33301 31 19c0 56 -24.333 88.667 -73 98c-30.667 16.667 -53.334 41 -68.001 73c-5.33301 11.333 -9 26.333 -11 45v19h-2c0 1.33301 -0.666992 7 -2 17l4 14
c-2.66699 0 -4 1.33301 -4 4c0 6 0.666992 9 2 9l-2 25v85l2 25v75c0 16.667 -0.666992 37.334 -2 62.001c1.33301 4.66699 2 13 2 25h2l-2 21v2c-1.33301 36.667 -2 61.667 -2 75l2 25c-1.33301 5.33301 -2 11.666 -2 18.999c0 11.333 3.33301 28.666 10 51.999h-2
c12 36 26.667 60 44 72l12 11c26 17.333 55.333 27.666 88 30.999z" />
    <glyph glyph-name="Egrave" unicode="&#xc8;" horiz-adv-x="344" 
d="M99 948l69.999 0.000976562c16.667 0 31.334 -19.333 44.001 -58c2.66699 -0.666992 4 -2.33398 4 -5.00098l-11 -8v-4h9c1.33301 0 2 0.666992 2 2c4.66699 0 11 -9.66699 19 -29c-15.333 -4.66699 -24 -7 -26 -7c-1.33301 0 -2 0.666992 -2 2l-8 -2
c-34 0 -54.333 7.66699 -61 23c-8 14 -12.667 21 -14 21c-6 6 -18.667 24.333 -38 55v4c1.33301 4 5.33301 6 12 6zM80.999 779.001l11.998 0.00195312c38 0 65.333 -3 82 -9l21 4h4c2 0 4 -2 6 -6l30 8c31.333 -1.33301 55 -2 71 -2c7.33301 0 12.333 -8.33301 15 -25
c0 -3.33301 -1.66699 -7.33301 -5 -12c3.33301 -0.666992 5 -2.33398 5 -5.00098v-6c0 -2.66699 -1.66699 -4 -5 -4l7 -19c0 -14 -10 -21 -30 -21h-86c-7.33301 0 -17 0.666992 -29 2c-2.66699 -1.33301 -4.66699 -2 -6 -2c0 1.33301 -0.666992 2 -2 2h-5
c-2 -1.33301 -4.66699 -2 -8 -2v-31l-8 -9v-6c2.66699 0 5.33398 -0.666992 8.00098 -2c-1.33301 -16.667 -2 -28.667 -2 -36v-46c0 -4.66699 -0.666992 -11 -2 -19c2.66699 -5.33301 4 -9.33301 4 -12l-2 -15l2 -4c0 -11.333 -1.33301 -19 -4 -23
c2.66699 -0.666992 4 -2 4 -4v-4c0 -2 -0.666992 -3 -2 -3l2 -4v-6l15 -8v4h23l6 -4c4.66699 2.66699 9 4 13 4h44c19.333 0 29 -8.33301 29 -25c0 -13.333 0.666992 -25.333 2 -36c0 -25.333 -7 -38 -21 -38h-90l-21 2l-4 -12c2 -2.66699 4 -15.334 6 -38.001
c-1.33301 -13.333 -2 -26 -2 -38v-44c0 -7.33301 0.666992 -17 2 -29c-1.33301 -14 -2.66602 -21 -3.99902 -21c2.66699 -2.66699 4.33398 -14 5.00098 -34s1 -34.333 1 -43h136c20.667 0 32 -6.33301 34 -19l-4 -21l2 -13v-2l-2 -12l4 -11c0 -12.667 -15.333 -19 -46 -19
c-42.667 -2.66699 -88.667 -4 -138 -4h-67c-17.333 0 -26 10.333 -26 31v21c0 3.33301 -0.666992 6.33301 -2 9l2 54v141l-2 50v21c0 4.66699 0.666992 8 2 10l-2 13v57c1.33301 20.667 2.66602 31 3.99902 31c-2 6.66699 -4 15 -6 25l2 13v2c0 2 -1.33301 13 -4 33v42
c0 12 0.666992 18.333 2 19c-1.33301 14 -2 25.333 -2 34v134l6 8v4c-5.33301 0 -8 1.33301 -8 4c0 17.333 11.333 26 34 26z" />
    <glyph glyph-name="Eacute" unicode="&#xc9;" horiz-adv-x="344" 
d="M218 953h48.999c8 -0.666992 12 -2.66699 12 -6v-6c-42 -67.333 -67 -101 -75 -101h-49l-12 -2c-7.33301 2 -11 4 -11 6v4c28.667 67.333 46.334 101 53.001 101c6 2.66699 17 4 33 4zM224.999 777c4.66699 0 7.99902 -0.672852 9.99902 -2.00586c12 1.33301 22 2 30 2
h37c14 0 21 -10.667 21 -32v-37c0 -20 -8.33301 -30 -25 -30c-26 -1.33301 -54 -2 -84 -2h-59c-2.66699 -0.666992 -4 -2 -4 -4v-48c1.33301 -5.33301 2 -13 2 -23v-26c0 -1.33301 0.666992 -2 2 -2l-2 -4c2.66699 -20.667 4 -36 4 -46v-34c0 -6.66699 -0.666992 -17 -2 -31
c3.33301 -0.666992 5 -2 5 -4c35.333 1.33301 61 2 77 2h30c16.667 0 25 -11.333 25 -34v-4c0 -6 -0.666992 -11.667 -2 -17c1.33301 -5.33301 2 -10.333 2 -15c0 -19.333 -8.33301 -29 -25 -29h-44c-6 0 -14 0.666992 -24 2c-4 -1.33301 -6 -2.66602 -6 -3.99902
c-2.66699 1.33301 -4.66699 2 -6 2l-13 -2l-12 2l-5 -23c2 -2.66699 3.66699 -9.66699 5 -21c-3.33301 -4.66699 -5 -9 -5 -13v-77l3 -11l-5 -40c4.66699 -7.33301 7 -20.666 7 -39.999h-2l2 -4v-25l2 -4c8 0 31 0.666992 69 2c50 -1.33301 78.667 -2 86 -2
c10 -3.33301 15 -7.66602 15 -12.999c-1.33301 -7.33301 -2 -11.666 -2 -12.999l-2 -56c1.33301 -2.66699 2 -5.66699 2 -9c-8.66699 -5.33301 -17 -8 -25 -8h-223c-19.333 0 -29 7.66699 -29 23c0 7.33301 0.666992 21.333 2 42c-1.33301 2.66699 -2 5.33398 -2 8.00098
c2.66699 0 4 1.66699 4 5c-2.66699 12.667 -4 21.667 -4 27v25l2 11l10 -2v6c-8 0 -12 4 -12 12v47c0 2.66699 -1 5.33398 -3 8.00098c0 1.33301 1 2 3 2c-2 14 -3 24.667 -3 32v19c0.666992 9.33301 2.33398 14 5.00098 14c-3.33301 4.66699 -5 9 -5 13v12l5 7
c-3.33301 12.667 -5 20.334 -5 23.001v44l5 -2h2v6c0 2.66699 -2.33301 4 -7 4v11l13 2v2c-8.66699 3.33301 -13 9 -13 17c-1.33301 2 -2 5.33301 -2 10l2 34c0 4 -0.666992 9 -2 15c1.33301 17.333 2 27.666 2 30.999c0 100.667 -3.33301 166.667 -10 198
c0 4.66699 0.666992 10.667 2 18c-1.33301 7.33301 -2 14.333 -2 21c0 18.667 48.333 28.667 145 30c7.33301 0 17 -0.666992 29 -2z" />
    <glyph glyph-name="Ecircumflex" unicode="&#xca;" horiz-adv-x="344" 
d="M77 779l86.001 -0.000976562c4.66699 0 9.66699 -2 15 -6h8c7.33301 0 11 1.33301 11 4c1.33301 0 2 -0.666992 2 -2c14 1.33301 24.333 2 31 2h66c18 0 27 -10.333 27 -31l-3 -15c2 -2.66699 3 -11.334 3 -26.001v-2c0 -14 -7.66699 -21 -23 -21h-27
c-1.33301 0 -2 -0.666992 -2 -2c-2 0 -3 0.666992 -3 2c-6.66699 0 -14.667 -0.666992 -24 -2c-26.667 1.33301 -52 2 -76 2v2c-2.66699 -1.33301 -6.33398 -2 -11.001 -2v-21c0 -9.33301 -0.666992 -14.666 -2 -15.999c1.33301 -9.33301 2 -17 2 -23v-45
c0 -5.33301 -0.666992 -13 -2 -23c1.33301 -2 2 -4.66699 2 -8s-0.666992 -6 -2 -8c1.33301 -10 2 -17.667 2 -23v-27c0 -1.33301 -0.666992 -2 -2 -2c3.33301 -19.333 10.333 -29 21 -29c15.333 0 29.333 -0.666992 42 -2c14 1.33301 26 2 36 2
c23.333 0 35 -9.33301 35 -28v-50c0 -15.333 -7 -23 -21 -23h-102c-2 0 -3 0.666992 -3 2c-2.66699 -1.33301 -4.66699 -2 -6 -2c0 -8 0.666992 -25 2 -51c0 -8.66699 -0.666992 -19 -2 -31c1.33301 -22 2 -44.333 2 -67v-8c0 -6.66699 -0.666992 -14.667 -2 -24
c2.66699 -7.33301 4 -22 4 -44v-8c0 -1.33301 0.666992 -2 2 -2l-2 -4v-15c0.666992 -2.66699 2.33398 -4 5.00098 -4h142c15.333 0 23 -8.33301 23 -25c0 -6 -0.666992 -10.667 -2 -14c1.33301 -9.33301 2 -16.666 2 -21.999v-17c0 -12.667 -12.667 -19 -38 -19
c-8.66699 0 -25 -1.33301 -49 -4c-4 0 -6 0.666992 -6 2c-18.667 -1.33301 -32.334 -2 -41.001 -2h-54c-12.667 0 -27 -0.666992 -43 -2c-30.667 0 -46 7.66699 -46 23c0 50.667 0.666992 76 2 76c-2.66699 4.66699 -4 8.66699 -4 12v178l2 10c0 4 -1.33301 8.33301 -4 13
l2 177c-2.66699 4.66699 -4 10 -4 16v128c0 6 -0.666992 13.667 -2 23l2 4c-1.33301 23.333 -2 41.333 -2 54v26c0 7.33301 2 11 6 11v2c-4 0 -6 3.33301 -6 10v2c0 12.667 10.333 19 31 19zM165.001 956.999h57.999c2.66699 0 7.66699 -6.33301 15 -19
c3.33301 0 24.333 -24.667 63 -74c0 -10 -22 -15 -66 -15c-4 0 -20 17 -48 51c-22.667 -36.667 -37 -55 -43 -55c-5.33301 -1.33301 -11 -2 -17 -2h-21c-3.33301 0 -6 -0.666992 -8 -2c-12 1.33301 -19.333 4 -22 8c26.667 44.667 52.334 80 77.001 106z" />
    <glyph glyph-name="Edieresis" unicode="&#xcb;" horiz-adv-x="344" 
d="M142 951c8 -3.33301 12.001 -6.33301 12.001 -9v-4c0 -1.33301 -0.666992 -2 -2 -2c1.33301 -4 2.66602 -6 3.99902 -6c-1.33301 -2.66699 -2 -4.66699 -2 -6l4 -21l2 -13v-12c0 -16.667 -7.33301 -25 -22 -25h-11c-6 0 -10.667 -0.333008 -14 -1s-14 -1 -32 -1
c-9.33301 0 -16 6 -20 18c0 52.667 6.66699 79 20 79h52c3.33301 0 6.33301 1 9 3zM279.001 951c12.667 0 19 -10.002 19 -30.002c0 -11.333 -0.666992 -28.666 -2 -51.999h2c-3.33301 -10.667 -11.666 -16 -24.999 -16h-2c-14 0 -24.333 0.666992 -31 2h-5l-8 6h-4
c-2.66699 0 -4 -2 -4 -6c-12.667 0 -19 15.333 -19 46v2c4 0 6 2.66699 6 8c-4 6.66699 -6 12.334 -6 17.001c4.66699 13.333 11.667 20 21 20c7.33301 0 26.666 1 57.999 3zM285.001 777.998l12.998 -0.00292969c7.33301 0 14.333 -5.66699 21 -17
c0 -1.33301 -1 -3.33301 -3 -6l5 -33l-7 -11l7 -10c0 -13.333 -8.33301 -21 -25 -23c-24.667 1.33301 -45.667 2 -63 2h-16c-1.33301 0 -2 -0.666992 -2 -2l-5 2l-18 -2l-9 4c-4 -2.66699 -8 -4 -12 -4c-1.33301 0 -7 1.33301 -17 4c0 -5.33301 -1.33301 -15 -4 -29
c0 -2.66699 -1.33301 -4 -4 -4c3.33301 -18 6 -35.333 8 -52c-1.33301 -28 -2 -47.333 -2 -58l2 -29v-52c8.66699 -4 13 -8.33301 13 -13h4c0 5.33301 1.33301 8 4 8h42c8 0 19 -0.666992 33 -2c2 1.33301 6 2 12 2c15.333 0 23 -15 23 -45v-36c0 -12 -8.33301 -18 -25 -18
h-102c-1.33301 0 -2.66602 -28 -3.99902 -84l6 -81h-8v-2l4 -6c0 -1.33301 -0.666992 -2 -2 -2c6 -8.66699 9 -15 9 -19v-60c0 -1.33301 0.666992 -3.33301 2 -6l50 4c42 -1.33301 68.333 -4.33301 79 -9c4 3.33301 8 5 12 5c14 -1.33301 21 -7.66602 21 -18.999v-19l-2 -21
c2 0 4 -4 6 -12c0 -15.333 -12.333 -23 -37 -23h-217c-15.333 0 -23 6.33301 -23 19v110c1.33301 18 2 32.667 2 44c3.33301 0 5 1.33301 5 4v2c-4 0 -6.33301 2.66699 -7 8c0 1.33301 0.666992 3.33301 2 6c-4 44 -6 81.667 -6 113v73l6 10c-4 0 -6 1.33301 -6 4
c0 6.66699 -0.666992 28.334 -2 65.001c0 0.666992 0.666992 4.66699 2 12c-1.33301 2.66699 -2 5.33398 -2 8.00098c2.66699 1.33301 4.66699 2 6 2v5c-5.33301 0 -8 3.33301 -8 10v79l2 13c-2.66699 4.66699 -4 10 -4 16v4l4 15c-2.66699 4.66699 -4 8.66699 -4 12v63
c0 6.66699 0.666992 13.667 2 21c-1.33301 4.66699 -2 10.667 -2 18v11c0 16.667 2.66699 25 8 25h2l13 2c34.667 1.33301 62.334 2 83.001 2c18 0 36.667 -0.666992 56 -2c18.667 2.66699 45 4 79 4z" />
    <glyph glyph-name="Igrave" unicode="&#xcc;" horiz-adv-x="198" 
d="M108 783l25.999 -2.00488l4 2c11.333 -3.33301 17 -12 17 -26v-19c0 -9.33301 -0.666992 -17.666 -2 -24.999c1.33301 -7.33301 2 -16 2 -26v-8l-2 -13c1.33301 -2.66699 2 -4.66699 2 -6l-2 -11c2.66699 -15.333 4 -33 4 -53v-64c0 -3.33301 -1.33301 -7.33301 -4 -12
c2.66699 -9.33301 4 -15.666 4 -18.999v-15c0 -3.33301 -1.33301 -9.66602 -4 -18.999c2.66699 -4.66699 4 -9 4 -13v-61c0 -5.33301 -2 -12.666 -6 -21.999c2.66699 -4.66699 4 -8.66699 4 -12v-2c0 -2 -0.666992 -3 -2 -3l2 -4v-66c0 -7.33301 -2 -13.666 -6 -18.999
c2.66699 -4.66699 4 -8.66699 4 -12v-64c0 -6 -0.666992 -13.667 -2 -23c1.33301 -2.66699 2 -5.66699 2 -9c-3.33301 -11.333 -5.66602 -17 -6.99902 -17c2 -4 3.66699 -6 5 -6c0 -1.33301 -0.666992 -2 -2 -2l2 -26v-31c0 -6 -0.666992 -11.667 -2 -17
c1.33301 -6 2 -11.667 2 -17v-24c0 -15.333 -10 -23 -30 -23h-51c-16.667 0 -25 5 -25 15l-2 13c0 0.666992 0.666992 4.66699 2 12l-2 9l2 8c-1.33301 8 -2 13.667 -2 17c2.66699 8.66699 4.66699 13 6 13l-6 32c0 9.33301 2.66699 17 8 23c-5.33301 2 -8 4 -8 6v11
c0 7.33301 1.33301 11 4 11l-2 4v8l2 13c-2.66699 7.33301 -4 12.333 -4 15c1.33301 10 2 18.333 2 25l-2 9c1.33301 2 2 5.33301 2 10c0 2 -0.666992 3 -2 3l2 4v38c0 4.66699 0.666992 8.33398 2 11.001l-4 38c1.33301 2 2 5.33301 2 10l-2 9
c2.66699 4.66699 4 8.66699 4 12l-2 22c1.33301 5.33301 2 10.333 2 15h-2l2 4v61c0 6 -0.666992 11.667 -2 17c1.33301 21.333 3.33301 35.666 6 42.999c-2.66699 4.66699 -4 71 -4 199l-2 4l4 13c-2.66699 4.66699 -4 8 -4 10c0 14.667 17 22 51 22h12zM75.999 964.995
c12.667 0 24.668 -15.665 36.001 -46.998c-2.66699 -0.666992 -4 -2 -4 -4v-2c10 0 22 -18.667 36 -56c0 -2.66699 -4.33301 -5.33398 -13 -8.00098l-13 2c-1.33301 0 -3.33301 -0.666992 -6 -2c-1.33301 0 -3.33301 0.666992 -6 2c-12 -1.33301 -22 -2 -30 -2h-2
c-16 0 -34.333 20.333 -55 61c-8.66699 7.33301 -16 18.666 -22 33.999c-2.66699 0 -5.33398 2.33301 -8.00098 7c0 8 6.33301 12 19 12h34c8 0 19.333 1 34 3zM59 952.997h-3v-2l2 -1z" />
    <glyph glyph-name="Iacute" unicode="&#xcd;" horiz-adv-x="201" 
d="M154 957l8.99902 -3.99902c4.66699 2.66699 8.66699 4 12 4h20c6.66699 0 10.667 -2.66699 12 -8l-40 -68h-6v4h-7c0 -4 1.33301 -8.33301 4 -13c-6 -14.667 -14.333 -24.334 -25 -29.001c-1.33301 0 -2 0.666992 -2 2l-26 -2h-33c-7.33301 0 -11.666 2 -12.999 6v2
c18 46.667 30 70 36 70l-2 4c6.66699 18.667 13.667 28 21 28zM58.999 779.001l66.001 -0.00195312c16.667 0 25 -5 25 -15c2.66699 0 4 -3.66699 4 -11v-10c0 -8 0.666992 -18 2 -30l-6 -10c3.33301 -11.333 5.33301 -17 6 -17l-2 -5c0 -3.33301 0.666992 -9 2 -17l-2 -12
c2.66699 -46 4 -81.333 4 -106c-1.33301 -30 -2 -50.667 -2 -62h-2c1.33301 -10 2 -18.333 2 -25v-113c0 -6.66699 0.666992 -13.667 2 -21c-1.33301 -5.33301 -2 -11.666 -2 -18.999v-8l2 -13c-0.666992 -2.66699 -2 -11 -4 -25c1.33301 -11.333 2 -23.666 2 -36.999v-6
l-2 -32v-4c0 -9.33301 0.666992 -18.333 2 -27c0 -2 -0.666992 -4.33301 -2 -7c1.33301 -9.33301 2 -17 2 -23v-19l-6 -9c2.66699 -4 4.66699 -9 6 -15c-1.33301 -2.66699 -2 -4.66699 -2 -6c1.33301 -6.66699 2 -14.334 2 -23.001c0 -32.667 -5.66699 -49 -17 -49h-14
l-17 2v-2c-6 1.33301 -11 2 -15 2h-2l-5 -2h-8c-17.333 2.66699 -26 5.33398 -26 8.00098v22c-2.66699 0 -4 1.33301 -4 4v6c0 1.33301 0.666992 2 2 2l-2 5v36l2 10c-2.66699 14 -4 28.333 -4 43c0 24.667 3 38 9 40c-4.66699 7.33301 -7 13 -7 17v114
c0 3.33301 -0.666992 6.33301 -2 9c0 1.33301 0.666992 2 2 2c-1.33301 19.333 -2 33.333 -2 42v3c0 8 0.666992 19 2 33c-1.33301 3.33301 -2 5.66602 -2 6.99902c1.33301 28 5 42 11 42c-6 0 -9 3.66699 -9 11v59c0 9.33301 -0.666992 18.666 -2 27.999
c1.33301 5.33301 2 10.333 2 15l-2 19c1.33301 12.667 2.66602 20.334 3.99902 23.001c-1.33301 2.66699 -2 5.33398 -2 8.00098c0 3.33301 3 5 9 5v6h-2l-11 -2v2c4 7.33301 6 13 6 17l-4 15v13c0 16 0.666992 28.667 2 38l-2 4v49c0 10.667 4.33301 17.667 13 21z" />
    <glyph glyph-name="Icircumflex" unicode="&#xce;" horiz-adv-x="198" 
d="M108 783l25.999 -2.00586l4 2c11.333 -3.33301 17 -12 17 -26v-19c0 -9.33301 -0.666992 -17.666 -2 -24.999c1.33301 -7.33301 2 -16 2 -26v-8l-2 -13c1.33301 -2.66699 2 -4.66699 2 -6l-2 -11c2.66699 -15.333 4 -33 4 -53v-64c0 -3.33301 -1.33301 -7.33301 -4 -12
c2.66699 -9.33301 4 -15.666 4 -18.999v-15c0 -3.33301 -1.33301 -9.66602 -4 -18.999c2.66699 -4.66699 4 -9 4 -13v-61c0 -5.33301 -2 -12.666 -6 -21.999c2.66699 -4.66699 4 -8.66699 4 -12v-2c0 -2 -0.666992 -3 -2 -3l2 -4v-66c0 -7.33301 -2 -13.666 -6 -18.999
c2.66699 -4.66699 4 -8.66699 4 -12v-64c0 -6 -0.666992 -13.667 -2 -23c1.33301 -2.66699 2 -5.66699 2 -9c-3.33301 -11.333 -5.66602 -17 -6.99902 -17c2 -4 3.66699 -6 5 -6c0 -1.33301 -0.666992 -2 -2 -2l2 -26v-31c0 -6 -0.666992 -11.667 -2 -17
c1.33301 -6 2 -11.667 2 -17v-24c0 -15.333 -10 -23 -30 -23h-51c-16.667 0 -25 5 -25 15l-2 13c0 0.666992 0.666992 4.66699 2 12l-2 9l2 8c-1.33301 8 -2 13.667 -2 17c2.66699 8.66699 4.66699 13 6 13l-6 32c0 9.33301 2.66699 17 8 23c-5.33301 2 -8 4 -8 6v11
c0 7.33301 1.33301 11 4 11l-2 4v8l2 13c-2.66699 7.33301 -4 12.333 -4 15c1.33301 10 2 18.333 2 25l-2 9c1.33301 2 2 5.33301 2 10c0 2 -0.666992 3 -2 3l2 4v38c0 4.66699 0.666992 8.33398 2 11.001l-4 38c1.33301 2 2 5.33301 2 10l-2 9
c2.66699 4.66699 4 8.66699 4 12l-2 22c1.33301 5.33301 2 10.333 2 15h-2l2 4v61c0 6 -0.666992 11.667 -2 17c1.33301 21.333 3.33301 35.666 6 42.999c-2.66699 4.66699 -4 8.66699 -4 12v7c0 6.66699 0.666992 13.667 2 21c-1.33301 5.33301 -2 11 -2 17
c0 9.33301 2 17 6 23v7h-6v4c3.33301 0 6 2.66699 8 8v4c0 3.33301 -1.33301 5 -4 5l-4 -2l-2 4v36c0 6 0.666992 13.667 2 23c-1.33301 2.66699 -2 6.33398 -2 11.001h2l-2 4v2l2 13l-2 4l4 13c-2.66699 4.66699 -4 8 -4 10c0 14.667 17 22 51 22h12zM79.999 956.994
h57.999c2.66699 0 7.66699 -6.33301 15 -19c3.33301 0 24.333 -24.667 63 -74c0 -10 -22 -15 -66 -15c-4 0 -20 17 -48 51c-22.667 -36.667 -37 -55 -43 -55c-5.33301 -1.33301 -11 -2 -17 -2h-21c-3.33301 0 -6 -0.666992 -8 -2c-12 1.33301 -19.333 4 -22 8
c26.667 44.667 52.334 80 77.001 106z" />
    <glyph glyph-name="Idieresis" unicode="&#xcf;" horiz-adv-x="198" 
d="M108 783l25.999 -2.00488l4 2c11.333 -3.33301 17 -12 17 -26v-19c0 -9.33301 -0.666992 -17.666 -2 -24.999c1.33301 -7.33301 2 -16 2 -26v-8l-2 -13c1.33301 -2.66699 2 -4.66699 2 -6l-2 -11c2.66699 -15.333 4 -33 4 -53v-64c0 -3.33301 -1.33301 -7.33301 -4 -12
c2.66699 -9.33301 4 -15.666 4 -18.999v-15c0 -3.33301 -1.33301 -9.66602 -4 -18.999c2.66699 -4.66699 4 -9 4 -13v-61c0 -5.33301 -2 -12.666 -6 -21.999c2.66699 -4.66699 4 -8.66699 4 -12v-2c0 -2 -0.666992 -3 -2 -3l2 -4v-66c0 -7.33301 -2 -13.666 -6 -18.999
c2.66699 -4.66699 4 -8.66699 4 -12v-64c0 -6 -0.666992 -13.667 -2 -23c1.33301 -2.66699 2 -5.66699 2 -9c-3.33301 -11.333 -5.66602 -17 -6.99902 -17c2 -4 3.66699 -6 5 -6c0 -1.33301 -0.666992 -2 -2 -2l2 -26v-31c0 -6 -0.666992 -11.667 -2 -17
c1.33301 -6 2 -11.667 2 -17v-24c0 -15.333 -10 -23 -30 -23h-51c-16.667 0 -25 5 -25 15l-2 13c0 0.666992 0.666992 4.66699 2 12l-2 9l2 8c-1.33301 8 -2 13.667 -2 17c2.66699 8.66699 4.66699 13 6 13l-6 32c0 9.33301 2.66699 17 8 23c-5.33301 2 -8 4 -8 6v11
c0 7.33301 1.33301 11 4 11l-2 4v8l2 13c-2.66699 7.33301 -4 12.333 -4 15c1.33301 10 2 18.333 2 25l-2 9c1.33301 2 2 5.33301 2 10c0 2 -0.666992 3 -2 3l2 4v38c0 4.66699 0.666992 8.33398 2 11.001l-4 38c1.33301 2 2 5.33301 2 10l-2 9
c2.66699 4.66699 4 8.66699 4 12l-2 22c1.33301 5.33301 2 10.333 2 15h-2l2 4v61c0 6 -0.666992 11.667 -2 17c1.33301 21.333 3.33301 35.666 6 42.999c-2.66699 4.66699 -4 8.66699 -4 12v7c0 6.66699 0.666992 13.667 2 21l-4 163l4 13c-2.66699 4.66699 -4 8 -4 10
c0 14.667 17 22 51 22h12zM156.999 948.995h41c16.667 0 25 -14 25 -42v-35c0 -16.667 -13.667 -25 -41 -25h-27c-21.333 0 -32 8.33301 -32 25c0 50 4.33301 75 13 75zM6.99902 946.995l54 0.000976562c12.667 0 19 -7.66699 19 -23v-48
c0 -2.66699 0.666992 -5.33398 2 -8.00098c0 -15.333 -17.333 -23 -52 -23h-25c-15.333 0 -23 15.333 -23 46v35c0 14 8.33301 21 25 21z" />
    <glyph glyph-name="Eth" unicode="&#xd0;" horiz-adv-x="416" 
d="M158 154l-3.99707 -8.00195c2 0 4 -2.33301 6 -7c0 -6.66699 -1.33301 -10 -4 -10c3.33301 -22 6.66602 -33 9.99902 -33c1.33301 0 7 0.666992 17 2c8 -1.33301 12 -3.33301 12 -6l20 4c0.666992 -2.66699 2 -4 4 -4c9.33301 0 24.666 10.333 45.999 31
c1.33301 12 2.66602 20.333 3.99902 25s3.33301 13 6 25c0 1.33301 -0.666992 2 -2 2c2 6.66699 5 11.334 9 14.001c-4.66699 9.33301 -7 16.666 -7 21.999c0 4 0.666992 6 2 6c-1.33301 14 -2 24.667 -2 32v22c0 20.667 -0.666992 44.667 -2 72c1.33301 8 2 15.667 2 23
c0 3.33301 -0.666992 6 -2 8c1.33301 12 2 22 2 30v24c0 8.66699 -0.666992 20.334 -2 35.001l2 4c-1.33301 14 -2 25 -2 33v63c0 6 0.666992 12.667 2 20c0 54 -11 86.333 -33 97c-5.33301 0 -11 4.33301 -17 13h-2c0 -7.33301 -4 -11 -12 -11h-43
c-2.66699 0 -4 -1.33301 -4 -4v-124c0.666992 -2.66699 2 -4 4 -4h35c13.333 0 20 -9 20 -27v-10c0 -8 -0.666992 -19.333 -2 -34c1.33301 -2 2 -4.66699 2 -8c0 -13.333 -11.333 -21.333 -34 -24l-4 2h-6c-8 0 -13.667 -2 -17 -6l2 -4v-38c0 -7.33301 -0.666992 -17 -2 -29
c1.33301 -2 2 -5.33301 2 -10c-1.33301 -7.33301 -2 -13.666 -2 -18.999h2l-2 -4v-136c0 -6 -1.33301 -22.333 -4 -49zM59.0029 161.998c-1.33301 7.33301 -2.66699 11.001 -4 11.001c1.33301 2.66699 2 4.66699 2 6c0 12 -0.666992 51 -2 117
c0 1.33301 0.666992 5.66602 2 12.999l-4 61l2 4v73c-4 0 -11 1.33301 -21 4c-5.33301 0 -8 -1.33301 -8 -4c-8.66699 0 -15.667 6 -21 18c0 54 4 81 12 81l13 2h21c5.33301 1.33301 8 9 8 23c-1.33301 4 -2.66602 6 -3.99902 6l2 16c0 8.66699 -0.666992 17.667 -2 27l2 12
c0 3.33301 -0.666992 6.33301 -2 9c1.33301 11.333 2 21 2 29v33c0 3.33301 -0.666992 6 -2 8c1.33301 2.66699 2 6 2 10v27c0 20.667 8.66699 31 26 31c72 1.33301 120 2 144 2c10 1.33301 15.667 2 17 2c7.33301 -4 13 -6 17 -6c1.33301 0 2 0.666992 2 2
c25.333 -5.33301 47.333 -17.333 66 -36c32.667 -32 49 -76 49 -132v-36l2 -12c0 -1.33301 -0.666992 -2 -2 -2c1.33301 -19.333 2 -33.333 2 -42v-38c0 -25.333 -0.666992 -59.333 -2 -102c1.33301 -2.66699 2 -5 2 -7l-2 -4c1.33301 -18 2 -33 2 -45v-18
c0 -10 -0.666992 -15.667 -2 -17c1.33301 -9.33301 2 -17 2 -23v-94c0 -28 -2.66699 -43.333 -8 -46v-2c-8 -36 -18.333 -60 -31 -72h-2c-2.66699 -3.33301 -4 -6 -4 -8c-28.667 -30.667 -67.334 -46 -116.001 -46h-22c-13.333 0 -20 1.33301 -20 4l-25 -2h-38
c-5.33301 0 -13 0.666992 -23 2c-1.33301 -1.33301 -6 -2 -14 -2c-14.667 0 -22.667 8.33301 -24 25l2 90z" />
    <glyph glyph-name="Ntilde" unicode="&#xd1;" horiz-adv-x="447" 
d="M323 779h54.999c14 0 21 -17.667 21 -53v-39c-1.33301 -113.333 -3 -176.333 -5 -189c3.33301 -14 5 -33 5 -57v-42c0 -10 -0.666992 -17.667 -2 -23c1.33301 -9.33301 2 -18.333 2 -27v-25c0 -32.667 0.666992 -79 2 -139c1.33301 -2.66699 2 -4.66699 2 -6l-2 -23v-131
c0 -16.667 -14 -25 -42 -25c-49.333 0 -74 7 -74 21c0 6 -7.66699 37 -23 93l2 4c-8 20 -24 83 -48 189c-11.333 39.333 -31 121 -59 245c-2 0 -4.66699 8.33301 -8 25h-2c-9.33301 0 -15.666 -4 -18.999 -12v-4h6l4 2c3.33301 -9.33301 5 -15.666 5 -18.999v-4
c2.66699 -145.333 4 -226 4 -242l2 -222l-4 -2c4 -14.667 6 -24 6 -28v-21c0 -20.667 -12.667 -31 -38 -31h-38c-15.333 0 -23 10.333 -23 31v21c0 3.33301 -0.666992 6.33301 -2 9c1.33301 2.66699 2 4.66699 2 6c0 2 -0.666992 9 -2 21c0 1.33301 -0.666992 17.333 -2 48
c0 8 0.666992 14.333 2 19c0 4.66699 -0.666992 7 -2 7c1.33301 20.667 2 36 2 46v63c0 11.333 -0.666992 24.666 -2 39.999l2 4c-2.66699 23.333 -4 59 -4 107v31c0 9.33301 0.666992 20 2 32c-2.66699 16 -4 45.333 -4 88v84c0 6.66699 0.666992 13.667 2 21
c-1.33301 5.33301 -2 11.666 -2 18.999v23c0 7.33301 0.666992 17 2 29c-1.33301 2.66699 -2 6.33398 -2 11.001c0 15.333 15.333 23 46 23h72c19.333 0 29 -14.667 29 -44c16.667 -72.667 27.667 -116.667 33 -132l-2 -5v-8c11.333 -31.333 36 -130 74 -296
c0 -5.33301 1.33301 -8 4 -8h2c0 13.333 0.666992 20.333 2 21c-1.33301 11.333 -2 21 -2 29v50c0.666992 10 2 15 4 15c-2.66699 7.33301 -4 20 -4 38v31c0 22.667 -1.33301 48.667 -4 78c1.33301 53.333 2 101.666 2 144.999c0 1.33301 -0.666992 3.33301 -2 6
c1.33301 2.66699 2 5.33398 2 8.00098v55c0 12.667 7.66699 19 23 19zM170.999 941l79 -19h15c1.33301 0 13 2.66699 35 8c2.66699 -0.666992 5.33398 -4 8.00098 -10c0 -1.33301 -0.666992 -3.33301 -2 -6c1.33301 -10 2 -17.667 2 -23v-13c0 -18 -15 -29 -45 -33h-15
l-73 17h-12c-8.66699 0 -21.334 -3 -38.001 -9h-2c-5.33301 2.66699 -8 7.66699 -8 15v41c5.33301 21.333 24 32 56 32z" />
    <glyph glyph-name="Ograve" unicode="&#xd2;" horiz-adv-x="415" 
d="M225 793l6 0.00195312c28.667 -6.66699 52.667 -13.667 72 -21c39.333 -35.333 59 -67 59 -95c0 -2.66699 -1.33301 -4 -4 -4c7.33301 -5.33301 11 -14.666 11 -27.999c1.33301 -13.333 2 -26.666 2 -39.999v-32c0 -7.33301 -1.33301 -16 -4 -26
c1.33301 -2 2 -4.66699 2 -8h-2c4 -6 6 -35 6 -87v-17l2 -25c-2 0 -4 -2.33301 -6 -7c5.33301 -4.66699 8 -19.334 8 -44.001v-100c0 -14 0.666992 -31.667 2 -53c-1.33301 -4 -2 -12.333 -2 -25c1.33301 -18 2 -27.333 2 -28c-8 -55.333 -16.333 -83 -25 -83
c-21.333 -52 -70 -78 -146 -78h-5c-38.667 0 -69 9.33301 -91 28v-3c-10 0 -27 17 -51 51c-12.667 21.333 -19 49.666 -19 84.999h-2c1.33301 2.66699 2 4.66699 2 6c0 7.33301 -0.666992 21.666 -2 42.999c1.33301 8 2 13.667 2 17h-2c0 1.33301 0.666992 2 2 2l-2 25v3
c0 8.66699 0.666992 17.667 2 27c-2.66699 26 -4.66699 41 -6 45c2.66699 7.33301 4 22 4 44v25l2 4l5 -2h4v6c-8.66699 4 -13 51 -13 141v8c0 5.33301 0.666992 9 2 11c-1.33301 10 -2 17.667 -2 23v5c0 95.333 20.667 154.666 62 177.999c16 17.333 57.667 27 125 29z
M227 696.002c-2.66699 0 -4 1.33105 -4 3.99805c-34 0 -56.667 -8.33301 -68 -25c-6 -12.667 -9 -54.334 -9 -125.001h2c0 -9.33301 -4.66699 -20 -14 -32c6.66699 0 10.667 -5 12 -15c0 -2.66699 -0.666992 -4 -2 -4c1.33301 -26.667 2 -46 2 -58v-63
c0 -6 0.666992 -14 2 -24c-1.33301 -1.33301 -2 -6.66602 -2 -15.999h2l-2 -5l4 -29l-2 -13c3.33301 -9.33301 5 -15.666 5 -18.999v-125c0 -23.333 6.33301 -39.666 19 -48.999h2c40.667 -1.33301 64 -2.66602 70 -3.99902c16.667 9.33301 25 22.666 25 39.999l-4 307l2 11
c-2.66699 14.667 -4 40.667 -4 78v28c0 3.33301 -0.666992 6.33301 -2 9c0 1.33301 0.666992 2 2 2c-1.33301 16.667 -2 28.667 -2 36v31c0 20.667 -6.33301 40 -19 58h2zM191 963c12.667 0 24.668 -15.665 36.001 -46.998c-2.66699 -0.666992 -4 -2 -4 -4v-2
c10 0 22 -18.667 36 -56c0 -2.66699 -4.33301 -5.33398 -13 -8.00098l-13 2c-1.33301 0 -3.33301 -0.666992 -6 -2c-1.33301 0 -3.33301 0.666992 -6 2c-12 -1.33301 -22 -2 -30 -2h-2c-16 0 -34.333 20.333 -55 61c-8.66699 7.33301 -16 18.666 -22 33.999
c-2.66699 0 -5.33398 2.33301 -8.00098 7c0 8 6.33301 12 19 12h34c8 0 19.333 1 34 3zM174.001 951.002h-3v-2l2 -1z" />
    <glyph glyph-name="Oacute" unicode="&#xd3;" horiz-adv-x="415" 
d="M225 793l6 0.00195312c28.667 -6.66699 52.667 -13.667 72 -21c39.333 -35.333 59 -67 59 -95c0 -2.66699 -1.33301 -4 -4 -4c7.33301 -5.33301 11 -14.666 11 -27.999c1.33301 -13.333 2 -26.666 2 -39.999v-32c0 -7.33301 -1.33301 -16 -4 -26
c1.33301 -2 2 -4.66699 2 -8h-2c4 -6 6 -35 6 -87v-17l2 -25c-2 0 -4 -2.33301 -6 -7c5.33301 -4.66699 8 -19.334 8 -44.001v-100c0 -14 0.666992 -31.667 2 -53c-1.33301 -4 -2 -12.333 -2 -25c1.33301 -18 2 -27.333 2 -28c-8 -55.333 -16.333 -83 -25 -83
c-21.333 -52 -70 -78 -146 -78h-5c-38.667 0 -69 9.33301 -91 28v-3c-10 0 -27 17 -51 51c-12.667 21.333 -19 49.666 -19 84.999h-2c1.33301 2.66699 2 4.66699 2 6c0 7.33301 -0.666992 21.666 -2 42.999c1.33301 8 2 13.667 2 17h-2c0 1.33301 0.666992 2 2 2l-2 25v3
c0 8.66699 0.666992 17.667 2 27c-2.66699 26 -4.66699 41 -6 45c2.66699 7.33301 4 22 4 44l-2 174v8c0 5.33301 0.666992 9 2 11c-1.33301 10 -2 17.667 -2 23v5c0 95.333 20.667 154.666 62 177.999c16 17.333 57.667 27 125 29zM227 696.002
c-2.66699 0 -4 1.3291 -4 3.99609c-34 0 -56.667 -8.33301 -68 -25c-6 -97.333 -9 -152 -9 -164v-63c0 -6 0.666992 -14 2 -24c-1.33301 -1.33301 -2 -6.66602 -2 -15.999h2l-2 -5c1.33301 -15.333 2 -52.666 2 -111.999c3.33301 -9.33301 5 -15.666 5 -18.999v-125
c0 -23.333 6.33301 -39.666 19 -48.999h2c40.667 -1.33301 64 -2.66602 70 -3.99902c16.667 9.33301 25 22.666 25 39.999l-4 307l2 11c-2.66699 14.667 -4 40.667 -4 78v28c0 3.33301 -0.666992 6.33301 -2 9c0 1.33301 0.666992 2 2 2c-1.33301 16.667 -2 28.667 -2 36v31
c0 20.667 -6.33301 40 -19 58h2zM223 950.998l24.998 0.000976562c4.66699 0 8.33398 -0.666992 11.001 -2l12 2h26c8.66699 -0.666992 13 -2.66699 13 -6c0 -6.66699 -6.33301 -17.334 -19 -32.001c0 -2 -3.66699 -9 -11 -21l-11 2h-2v-19c0 -2.66699 -1.33301 -4 -4 -4
l-6 -6v-5c-6.66699 -15.333 -17.334 -23 -32.001 -23c-6.66699 0 -11 0.666992 -13 2c-9.33301 -1.33301 -17 -2 -23 -2h-19c-7.33301 0 -11.666 2 -12.999 6v2c0 7.33301 9.33301 24.333 28 51c10.667 36.667 23.334 55 38.001 55z" />
    <glyph glyph-name="Ocircumflex" unicode="&#xd4;" horiz-adv-x="415" 
d="M225 793l6.00098 0.00292969c28.667 -6.66699 52.667 -13.667 72 -21c39.333 -35.333 60.166 -62 62.499 -80s3.5 -33.667 3.5 -47c1.33301 -13.333 2 -26.666 2 -39.999v-32c0 -7.33301 -1.33301 -16 -4 -26c1.33301 -2 2 -4.66699 2 -8h-2c4 -6 6 -35 6 -87v-17l2 -25
c-2 0 -4 -2.33301 -6 -7c5.33301 -4.66699 8 -19.334 8 -44.001v-100c0 -14 0.666992 -31.667 2 -53c-1.33301 -4 -2 -12.333 -2 -25c1.33301 -18 2 -27.333 2 -28c-8 -55.333 -16.333 -83 -25 -83c-21.333 -52 -70 -78 -146 -78h-5c-38.667 0 -69 9.33301 -91 28v-3
c-10 0 -27 17 -51 51c-12.667 21.333 -19 49.666 -19 84.999h-2c1.33301 2.66699 2 4.66699 2 6c0 7.33301 -0.666992 21.666 -2 42.999c1.33301 8 2 13.667 2 17h-2c0 1.33301 0.666992 2 2 2l-2 25v3c0 8.66699 0.666992 17.667 2 27c-2.66699 26 -4.66699 41 -6 45
c2.66699 7.33301 4 22 4 44l-2 174v8c0 5.33301 0.666992 9 2 11c-1.33301 10 -2 17.667 -2 23v5c0 95.333 20.667 154.666 62 177.999c16 17.333 57.667 27 125 29zM227.001 696.003c-2.66699 0 -4 1.33008 -4 3.99707c-34 0 -56.667 -8.33301 -68 -25
c-6 -12.667 -9 -31 -9 -55h2c0 -9.33301 -0.333008 -26.833 -1 -52.5s-1 -44.5 -1 -56.5v-63c0 -6 0.666992 -14 2 -24c-1.33301 -1.33301 -2 -6.66602 -2 -15.999h2l-2 -5c1.33301 -68.667 2 -108.667 2 -120c0 -5.33301 -4 -11.666 -12 -18.999v-2
c9.33301 -8.66699 14 -21.334 14 -38.001l-2 -13c3.33301 -9.33301 5 -15.666 5 -18.999v-45c0 -23.333 6.33301 -39.666 19 -48.999h2c40.667 -1.33301 64 -2.66602 70 -3.99902c16.667 9.33301 25 22.666 25 39.999l-4 307l2 11c-2.66699 14.667 -4 40.667 -4 78v28
c0 3.33301 -0.666992 6.33301 -2 9c0 1.33301 0.666992 2 2 2c-1.33301 16.667 -2 28.667 -2 36v31c0 20.667 -6.33301 40 -19 58h2zM184.001 957h57.999c2.66699 0 7.66699 -6.33301 15 -19c3.33301 0 24.333 -24.667 63 -74c0 -10 -22 -15 -66 -15c-4 0 -20 17 -48 51
c-22.667 -36.667 -37 -55 -43 -55c-5.33301 -1.33301 -11 -2 -17 -2h-21c-3.33301 0 -6 -0.666992 -8 -2c-12 1.33301 -19.333 4 -22 8c26.667 44.667 52.334 80 77.001 106z" />
    <glyph glyph-name="Otilde" unicode="&#xd5;" 
d="M232 687c-1.33301 -2.66699 -2.66602 -4.33398 -3.99902 -5.00098l-11 2h-21c-30 -1.33301 -45 -14 -45 -38c-3.33301 -24 -7.33301 -36 -12 -36h-3v-4c7.33301 0 11.666 -19.667 12.999 -59c2.66699 0 4 -5 4 -15v-2c0 -14.667 -2.66699 -22 -8 -22h-2v-4
c6.66699 -6 10 -37 10 -93c0 -1.33301 -0.666992 -2 -2 -2l2 -4v-17c0 -18.667 -1.33301 -31.667 -4 -39c1.33301 -14 2 -25.333 2 -34v-150c-1.33301 -2.66699 -2 -5.66699 -2 -9c8 -43.333 23.667 -65 47 -65h21c28 6.66699 42 17.334 42 32.001
c0 3.33301 2.33301 7.33301 7 12c0 4.66699 -0.666992 7 -2 7l2 10l-5 159l3 4c-2 2.66699 -3 5.66699 -3 9v8l5 15c-1.33301 4.66699 -3 7 -5 7c2 60.667 4.33301 103.667 7 129c-2.66699 0 -4 1.33301 -4 4v72l6 9c-6 6 -9 13 -9 21v32c0 20 -9.66699 42 -29 66zM329 731
c3.33301 -4.66699 5 -8.33203 5 -10.999l10 -17h2c8.66699 -20.667 13 -36 13 -46c-1.33301 0 -2 -0.666992 -2 -2c6 0 9.33301 -17.667 10 -53l-2 -15c3.33301 -4.66699 5 -9 5 -13v-6c0 -23.333 0.666992 -40.333 2 -51c-1.33301 -11.333 -2 -28.333 -2 -51v-4
c0 -1.33301 0.666992 -2 2 -2l-2 -5v-23c0 -6.66699 -1 -13.667 -3 -21c2 -5.33301 3 -11 3 -17l-3 -13c2 -7.33301 3 -14.333 3 -21c-2 -12.667 -3 -19.667 -3 -21h3c-2 -2.66699 -3 -5 -3 -7c3.33301 -80.667 5 -139.334 5 -176.001c0 -87.333 -41 -141.666 -123 -162.999
c-6 0 -11.667 -0.666992 -17 -2c-1.33301 0 -2 0.666992 -2 2c-13.333 -1.33301 -22 -2.66602 -26 -3.99902c-22.667 3.33301 -34 7.66602 -34 12.999l-15 -2c-35.333 12 -60 29.667 -74 53c-24 28.667 -36 80.667 -36 156l4 32l-2 11v19c0 1.33301 0.666992 2 2 2l-2 4v81
c0 8 -0.666992 18 -2 30l7 10c0 5.33301 -2.33301 18 -7 38v26l4 6l-4 15c-2.66699 70.667 -4 113.667 -4 129c0.666992 18.667 2.66699 28 6 28l-4 10c0 22 15 53.333 45 94c22.667 21.333 42.334 32 59.001 32c17.333 5.33301 33.666 8.66602 48.999 9.99902
c9.33301 0 25.333 -1.33301 48 -4s51 -19.667 85 -51zM166 950.002c6 0 28.668 -5.66699 68.001 -17h17c6 0 20 2.66699 42 8c5.33301 0 8 -8.33301 8 -25l-2 -20l2 -13c-9.33301 -18 -27.333 -27 -54 -27l-81 19h-2c-18 -1.33301 -32 -5 -42 -11
c-5.33301 2 -8 6.33301 -8 13v46c3.33301 18 20.666 27 51.999 27z" />
    <glyph glyph-name="Odieresis" unicode="&#xd6;" 
d="M196 684c-30 -1.33301 -47 -15.001 -51 -41.001c-1.33301 -7.33301 -4 -19.666 -8 -36.999c0.666992 -17.333 1 -42 1 -74h-2v-4c0 -32.667 2.33301 -71.667 7 -117c0 -1.33301 -0.666992 -2 -2 -2l2 -4v-17c0 -18.667 -1.33301 -31.667 -4 -39
c1.33301 -14 2 -25.333 2 -34l-3 -24c0 -24.667 4.33301 -66.667 13 -126c-1.33301 -2.66699 -2 -5.66699 -2 -9c8 -43.333 23.667 -65 47 -65h21c28 6.66699 42 17.334 42 32.001c0 3.33301 2.33301 7.33301 7 12c0 4.66699 -0.666992 7 -2 7l2 10v68l-2 21
c0 9.33301 -1 32.666 -3 69.999l3 4c-2 2.66699 -3 5.66699 -3 9v8l5 15c-1.33301 4.66699 -3 7 -5 7c2 60.667 4.33301 103.667 7 129c-2.66699 0 -4 1.33301 -4 4l-3 102v32c0 20 -7.33301 35.5 -22 46.5s-29 16.5 -43 16.5zM329 730.999
c3.33301 -4.66699 5 -8.33203 5 -10.999l10 -17h2c8.66699 -20.667 13 -36 13 -46c-1.33301 0 -2 -0.666992 -2 -2c6 0 9.33301 -17.667 10 -53l-2 -15c3.33301 -4.66699 5 -9 5 -13v-6c0 -23.333 0.666992 -40.333 2 -51c-1.33301 -11.333 -2 -28.333 -2 -51v-4
c0 -1.33301 0.666992 -2 2 -2l-2 -5v-23c0 -6.66699 -1 -13.667 -3 -21c2 -5.33301 3 -11 3 -17l-3 -13c2 -7.33301 3 -14.333 3 -21c-2 -12.667 -3 -19.667 -3 -21h3c-2 -2.66699 -3 -5 -3 -7l-2 -12c4.66699 -72.667 7 -127.334 7 -164.001
c0 -87.333 -41 -141.666 -123 -162.999c-6 0 -11.667 -0.666992 -17 -2c-1.33301 0 -2 0.666992 -2 2c-13.333 -1.33301 -22 -2.66602 -26 -3.99902c-22.667 3.33301 -34 7.66602 -34 12.999l-15 -2c-35.333 12 -60 29.667 -74 53c-24 28.667 -36 80.667 -36 156l4 32l-2 11
v19c0 1.33301 0.666992 2 2 2l-2 4v81c0 8 -0.666992 18 -2 30v74l4 6l-4 15c-2.66699 70.667 -4 113.667 -4 129c0.666992 18.667 2.66699 28 6 28l-4 10c0 22 15 53.333 45 94c22.667 21.333 42.334 32 59.001 32c17.333 5.33301 33.666 8.66602 48.999 9.99902
c9.33301 0 25.333 -1.33301 48 -4s51 -19.667 85 -51zM271 955.001l26 -0.000976562c14 0 21 -9.33301 21 -28c1.33301 -10 2 -17 2 -21c-2.66699 -15.333 -4 -25.333 -4 -30h-2v-13c0 -5.33301 -10.667 -8 -32 -8h-6c-2 0 -3 0.666992 -3 2
c-2.66699 -1.33301 -11.667 -2.66602 -27 -3.99902c-15.333 2.66699 -23 9 -23 19l2 8c-1.33301 4.66699 -3 7 -5 7l3 15v31l2 5v2c0 1.33301 -0.666992 2 -2 2c0 8.66699 16 13 48 13zM138 952c26.667 -0.666992 40 -6 40 -16c0 -6 0.666992 -17.333 2 -34
c0 -12.667 -0.333008 -21 -1 -25s-1 -7 -1 -9c-2.66699 -8.66699 -8.33398 -13 -17.001 -13h-19c-10 -1.33301 -18.333 -2 -25 -2h-17c-11.333 6 -17 11.667 -17 17l2 8c-1.33301 16 -2.66602 24 -3.99902 24l6 12c-2.66699 4.66699 -4 9 -4 13c0 15.333 8.33301 23 25 23
c8 0 18 0.666992 30 2z" />
    </font>
</defs>
</svg>
